Torrent’s details
Name FIFA.World.Cup.Highlights.S2022E03.Day 3.1080p.RTE.WEB-DL.AAC2.0.H.264-TEiLiFiS [EN/25fps]
Description Episode 03 FIFA World Cup Highlights
Video Setting..H.264
Video Bitrate..6 000 kb/s
Audio Format...AAC 2.0
Audio Bitrate..125 kb/s
Subtitles......yes
Chapters.......no
[/i]Synopsis: [i]Action from the latest fixtures in Qatar, featuring France v Australia, Denmark v Tunisia, Argentina v Saudi Arabia and Mexico v Poland.
grabbed media info



MEDIAINFO
General
Unique ID                                : 95538512223710097677253123151156179999 (0x47E00C53C7BD70D727A285CBD92B741F)
Complete name                            : D:dlwvdlDOWNLO~1FIFAWO~2.264FIFAWO~1.264FIFAWO~3.MKV
Format                                   : Matroska
Format version                           : Version 4
File size                                : 2.34 GiB
Duration                                 : 54 min 42 s
Overall bit rate                         : 6 121 kb/s
Movie name                               : FIFA World Cup Highlights S2022E03 FIFA World Cup Highlights
Track name/Position                      : 03
Description                              : Daily highlights of all the action from the 2022 FIFA World Cup.
Released date                            : 2022-11-23
Encoded date                             : UTC 2022-11-24 11:47:42
Writing application                      : mkvmerge v69.0.0 ('Day And Age'wink.gif 64-bit
Writing library                          : libebml v1.4.2 + libmatroska v1.6.4
Comment                                  : Brought to you by -TEiLiFiS-
Attachments                              : Thumbnail
SYNOPSIS                                 : Action from the latest fixtures in Qatar, featuring France v Australia, Denmark v Tunisia, Argentina v Saudi Arabia and Mexico v Poland.

Video
ID                                       : 1
Format                                   : AVC
Format/Info                              : Advanced Video Codec
Format profile                           : High@L4
Format settings                          : CABAC / 2 Ref Frames
Format settings, CABAC                   : Yes
Format settings, Reference frames        : 2 frames
Format settings, GOP                     : M=3, N=50
Codec ID                                 : V_MPEG4/ISO/AVC
Duration                                 : 54 min 42 s
Bit rate mode                            : Constant
Bit rate                                 : 6 000 kb/s
Width                                    : 1 920 pixels
Height                                   : 1 080 pixels
Display aspect ratio                     : 16:9
Frame rate mode                          : Constant
Frame rate                               : 25.000 FPS
Color space                              : YUV
Chroma subsampling                       : 4:2:0
Bit depth                                : 8 bits
Scan type                                : Progressive
Bits/(Pixel*Frame)                       : 0.116
Stream size                              : 2.29 GiB (98%)
Language                                 : English
Default                                  : Yes
Forced                                   : No

Audio
ID                                       : 2
Format                                   : AAC LC
Format/Info                              : Advanced Audio Codec Low Complexity
Codec ID                                 : A_AAC-2
Duration                                 : 54 min 42 s
Bit rate                                 : 125 kb/s
Channel(s)                               : 2 channels
Channel layout                           : L R
Sampling rate                            : 48.0 kHz
Frame rate                               : 46.875 FPS (1024 SPF)
Compression mode                         : Lossy
Stream size                              : 49.1 MiB (2%)
Language                                 : English
Default                                  : Yes
Forced                                   : No

Text
ID                                       : 3
Format                                   : UTF-8
Codec ID                                 : S_TEXT/UTF8
Codec ID/Info                            : UTF-8 Plain Text
Duration                                 : 53 min 9 s
Bit rate                                 : 441 b/s
Frame rate                               : 1.037 FPS
Count of elements                        : 3308
Stream size                              : 172 KiB (0%)
Title                                    : English
Language                                 : English
Default                                  : No
Forced                                   : No

Category International Soccer
Rating N/A
Size 2.34 GB
Show/Hide Files
1 file