Torrent’s details
Name Rowdy's Places S01E03 Kickboxing By The Bay 720p ESPN WEB-DL AAC2.0 H.264-KiMCHi
Image
Description
Quote:
This release is sourced from ESPN and is not transcoded, just remuxed from the direct stream.



General
Unique ID                                : 33704575185400319510173330811467940984 (0x195B43DB0DB3033A104C6BF140C5447cool1.gif
Complete name                            : Rowdy's.Places.S01E03.Kickboxing.By.The.Bay.720p.ESPN.WEB-DL.AAC2.0.H.264-KiMCHi.mkv
Format                                   : Matroska
Format version                           : Version 4
File size                                : 849 MiB
Duration                                 : 17 min 1 s
Overall bit rate mode                    : Variable
Overall bit rate                         : 6 972 kb/s
Movie name                               : Rowdy's Places - Kickboxing By The Bay [S01E03] 720p ESPN WEB-DL - KiMCHi
Encoded date                             : UTC 2021-10-02 03:48:19
Writing application                      : mkvmerge v38.0.0 ('The Silent Type'wink.gif 64-bit
Writing library                          : libebml v1.3.9 + libmatroska v1.5.2

Video
ID                                       : 1
Format                                   : AVC
Format/Info                              : Advanced Video Codec
Format profile                           : High@L4
Format settings                          : CABAC / 3 Ref Frames
Format settings, CABAC                   : Yes
Format settings, Reference frames        : 3 frames
Codec ID                                 : V_MPEG4/ISO/AVC
Duration                                 : 17 min 1 s
Bit rate mode                            : Variable
Bit rate                                 : 6 842 kb/s
Maximum bit rate                         : 8 590 kb/s
Width                                    : 1 280 pixels
Height                                   : 720 pixels
Display aspect ratio                     : 16:9
Frame rate mode                          : Constant
Frame rate                               : 59.940 (60000/1001) FPS
Color space                              : YUV
Chroma subsampling                       : 4:2:0
Bit depth                                : 8 bits
Scan type                                : Progressive
Bits/(Pixel*Frame)                       : 0.124
Stream size                              : 833 MiB (98%)
Default                                  : Yes
Forced                                   : No

Audio
ID                                       : 2
Format                                   : AAC LC
Format/Info                              : Advanced Audio Codec Low Complexity
Codec ID                                 : A_AAC-2
Duration                                 : 17 min 1 s
Bit rate                                 : 125 kb/s
Channel(s)                               : 2 channels
Channel layout                           : L R
Sampling rate                            : 48.0 kHz
Frame rate                               : 46.875 FPS (1024 SPF)
Compression mode                         : Lossy
Delay relative to video                  : -12 ms
Stream size                              : 15.3 MiB (2%)
Language                                 : English
Default                                  : Yes
Forced                                   : No
Category MMA
Rating N/A
Size 849.28 MB
Show/Hide Files
1 file