Torrent’s details
Name NCAAM 2023.01.12 Iowa-Michigan ESPN HD Live Recording
Description Video
ID                                       : 1
Format                                   : AVC
Format/Info                              : Advanced Video Codec
Format profile                           : Main@L3.2
Format settings                          : CABAC / 3 Ref Frames
Format settings, CABAC                   : Yes
Format settings, RefFrames               : 3 frames
Codec ID                                 : avc1
Codec ID/Info                            : Advanced Video Coding
Duration                                 : 1 h 25 min
Source duration                          : 1 h 25 min
Bit rate                                 : 5 071 kb/s
Width                                    : 1 280 pixels
Height                                   : 720 pixels
Display aspect ratio                     : 16:9
Frame rate mode                          : Variable
Frame rate                               : 59.940 FPS
Minimum frame rate                       : 58.882 FPS
Maximum frame rate                       : 62.563 FPS
Color space                              : YUV
Chroma subsampling                       : 4:2:0
Bit depth                                : 8 bits
Scan type                                : Progressive
Bits/(Pixel*Frame)                       : 0.092
Stream size                              : 3.02 GiB (97%)
Source stream size                       : 3.02 GiB (97%)
Language                                 : English
Encoded date                             : UTC 2023-01-13 02:25:00
Tagged date                              : UTC 2023-01-13 02:25:00
Color range                              : Limited
Color primaries                          : BT.709
Transfer characteristics                 : BT.709
Matrix coefficients                      : BT.709
mdhd_Duration                            : 5112396

Audio
ID                                       : 2
Format                                   : AAC
Format/Info                              : Advanced Audio Codec
Format profile                           : LC
Codec ID                                 : mp4a-40-2
Duration                                 : 1 h 25 min
Source duration                          : 1 h 25 min
Bit rate mode                            : Variable
Bit rate                                 : 128 kb/s
Maximum bit rate                         : 210 kb/s
Channel(s)                               : 2 channels
Channel positions                        : Front: L R
Sampling rate                            : 44.1 kHz
Frame rate                               : 43.066 FPS (1024 SPF)
Compression mode                         : Lossy
Stream size                              : 78.0 MiB (2%)
Source stream size                       : 78.0 MiB (2%)
Language                                 : English
Category NCAA Basket/Football
Rating N/A
Size 5.17 GB
Show/Hide Files
2 files