Torrent’s details
Name Bundesliga.Highlights.2019.05.13.1080p.WEBRip.x264-VLF
Description Bundesliga.Highlights.2019.05.13.1080p.WEBRip.x264-VLF

Release Details
Network: BT
Language: English
Notes: Full Show

Do not re-upload elsewhere without permission!
This includes other torrent sites, Usenet, direct download links, etc.

Media Info:
General
Complete name                            : BL.HI.2019.05.13.BT.1080p-EN.mp4
Format                                   : MPEG-4
Format profile                           : Base Media
Codec ID                                 : isom
File size                                : 1.94 GiB
Duration                                 : 51mn 31s
Overall bit rate                         : 5 381 Kbps
Writing application                      : Lavf57.71.100

Video
ID                                       : 1
Format                                   : AVC
Format/Info                              : Advanced Video Codec
Format profile                           : Main@L4.0
Format settings, CABAC                   : No
Format settings, ReFrames                : 2 frames
Format settings, GOP                     : M=3, N=50
Codec ID                                 : avc1
Codec ID/Info                            : Advanced Video Coding
Duration                                 : 51mn 31s
Bit rate                                 : 5 114 Kbps
Width                                    : 1 920 pixels
Height                                   : 1 080 pixels
Display aspect ratio                     : 16:9
Frame rate mode                          : Variable
Frame rate                               : 25.000 fps
Minimum frame rate                       : 1.756 fps
Maximum frame rate                       : 50.000 fps
Color space                              : YUV
Chroma subsampling                       : 4:2:0
Bit depth                                : 8 bits
Scan type                                : Progressive
Bits/(Pixel*Frame)                       : 0.099
Stream size                              : 1.84 GiB (95%)

Audio
ID                                       : 2
Format                                   : AAC
Format/Info                              : Advanced Audio Codec
Format profile                           : LC
Codec ID                                 : 40
Duration                                 : 51mn 31s
Bit rate mode                            : Constant
Bit rate                                 : 265 Kbps
Channel(s)                               : 2 channels
Channel positions                        : Front: L R
Sampling rate                            : 48.0 KHz
Compression mode                         : Lossy
Stream size                              : 96.7 MiB (5%)
Language                                 : English


Category European Soccer
Rating N/A
Size 1.94 GB
Show/Hide Files
1 file