Torrent’s details
Name EPL_16_12_2020_MatchDay 13_Liverpool vs Tottenham_Nor_Viasat UHD_IPTV_2160p_50fps_UHD_HEVC-_(15_02GB)_ (1)
Description ID : 16 (0x10)
Complete name : L:EPL.16.12.2020.MatchDay 13.Liverpool vs Tottenham.Nor.Viasat UHD.IPTV.2160p.50fps.UHD.HEVC-SportHD.org.ts
Format : MPEG-TS
File size : 15.0 GiB
Duration : 1 h 58 min
Overall bit rate mode : Variable
Overall bit rate : 18.2 Mb/s

Video
ID : 256 (0x100)
Menu ID : 1 (0x1)
Format : HEVC
Format/Info : High Efficiency Video Coding
Format profile : Main 10@L5.1@Main
Codec ID : 36
Duration : 1 h 58 min
Bit rate : 16.9 Mb/s
Width : 3 840 pixels
Height : 2 160 pixels
Display aspect ratio : 16:9
Frame rate : 50.000 FPS
Color space : YUV
Chroma subsampling : 4:2:0
Bit depth : 10 bits
Bits/(Pixel*Frame) : 0.041
Stream size : 14.0 GiB (93%)
Color range : Limited
Color primaries : BT.709
Transfer characteristics : BT.709
Matrix coefficients : BT.709

Audio
ID : 257 (0x101)
Menu ID : 1 (0x1)
Format : AC-3
Format/Info : Audio Coding 3
Codec ID : 6
Duration : 1 h 58 min
Bit rate mode : Constant
Bit rate : 384 kb/s
Channel(s) : 6 channels
Channel positions : Front: L C R, Side: L R, LFE
Sampling rate : 48.0 kHz
Frame rate : 31.250 FPS (1536 SPF)
Bit depth : 16 bits
Compression mode : Lossy
Delay relative to video : -5 ms
Stream size : 325 MiB (2%)
Language : Danish
Language, more info : Clean effects
Service kind : Complete Main

Menu
ID : 4096 (0x1000)
Menu ID : 1 (0x1)
Duration : 1 h 58 min
List : 256 (0x100) (HEVC) / 257 (0x101) (AC-3, Danish)
Language : / Danish
Service name : DVR-UHD
Service provider : HS
Service type : digital television
Category European Soccer
Rating N/A
Size 15.02 GB
Show/Hide Files
1 file