Torrent’s details
Name Formula1: 2000 - 2009
Image
Description Formula1: 2000 - 2009

Screenshots:



Media Info:

Code

General
Complete name                            : 2000s/Season 2000/Formula 1 - s2000e01 - Australian Grand Prix.avi
Format                                   : AVI
Format/Info                              : Audio Video Interleave
File size                                : 1.36 GiB
Duration                                 : 2 h 0 min
Overall bit rate                         : 1 624 kb/s
Writing library                          : VirtualDub build 18121/release

Video
ID                                       : 0
Format                                   : MPEG-4 Visual
Format profile                           : Advanced Simple@L5
Format settings                          : BVOP2
Format settings, BVOP                    : 2
Format settings, QPel                    : No
Format settings, GMC                     : No warppoints
Format settings, Matrix                  : Default (H.263)
Muxing mode                              : Packed bitstream
Codec ID                                 : XVID
Codec ID/Hint                            : XviD
Duration                                 : 2 h 0 min
Bit rate                                 : 1 487 kb/s
Width                                    : 512 pixels
Height                                   : 384 pixels
Display aspect ratio                     : 4:3
Frame rate                               : 25.000 FPS
Color space                              : YUV
Chroma subsampling                       : 4:2:0
Bit depth                                : 8 bits
Scan type                                : Progressive
Compression mode                         : Lossy
Bits/(Pixel*Frame)                       : 0.302
Stream size                              : 1.25 GiB (92%)
Writing library                          : XviD 1.0.3 (UTC 2004-12-20)

Audio
ID                                       : 1
Format                                   : MPEG Audio
Format version                           : Version 1
Format profile                           : Layer 3
Format settings                          : Joint stereo / MS Stereo
Codec ID                                 : 55
Codec ID/Hint                            : MP3
Duration                                 : 2 h 0 min
Bit rate mode                            : Constant
Bit rate                                 : 128 kb/s
Channel(s)                               : 2 channels
Sampling rate                            : 44.1 kHz
Compression mode                         : Lossy
Stream size                              : 110 MiB (8%)
Alignment                                : Split across interleaves
Interleave, duration                     : 40  ms (1.00 video frame)
Interleave, preload duration             : 500  ms

General
Complete name                            : 2000s/Season 2001/Formula 1 - s2001e01 - Australian Grand Prix.avi
Format                                   : AVI
Format/Info                              : Audio Video Interleave
File size                                : 1.45 GiB
Duration                                 : 2 h 7 min
Overall bit rate                         : 1 622 kb/s
Writing library                          : VirtualDub build 18160/release

Video
ID                                       : 0
Format                                   : MPEG-4 Visual
Format profile                           : Advanced Simple@L5
Format settings                          : BVOP2
Format settings, BVOP                    : 2
Format settings, QPel                    : No
Format settings, GMC                     : No warppoints
Format settings, Matrix                  : Default (H.263)
Muxing mode                              : Packed bitstream
Codec ID                                 : XVID
Codec ID/Hint                            : XviD
Duration                                 : 2 h 7 min
Bit rate                                 : 1 484 kb/s
Width                                    : 512 pixels
Height                                   : 384 pixels
Display aspect ratio                     : 4:3
Frame rate                               : 25.000 FPS
Color space                              : YUV
Chroma subsampling                       : 4:2:0
Bit depth                                : 8 bits
Scan type                                : Progressive
Compression mode                         : Lossy
Bits/(Pixel*Frame)                       : 0.302
Stream size                              : 1.32 GiB (92%)
Writing library                          : XviD 1.0.3 (UTC 2004-12-20)

Audio
ID                                       : 1
Format                                   : MPEG Audio
Format version                           : Version 1
Format profile                           : Layer 3
Format settings                          : Joint stereo / MS Stereo
Codec ID                                 : 55
Codec ID/Hint                            : MP3
Duration                                 : 2 h 7 min
Bit rate mode                            : Constant
Bit rate                                 : 128 kb/s
Channel(s)                               : 2 channels
Sampling rate                            : 44.1 kHz
Compression mode                         : Lossy
Stream size                              : 117 MiB (8%)
Alignment                                : Split across interleaves
Interleave, duration                     : 40  ms (1.00 video frame)
Interleave, preload duration             : 500  ms

General
Complete name                            : 2000s/Season 2002/Formula 1 - s2002e01 - Australian Grand Prix.avi
Format                                   : DivX
Format/Info                              : Hack of AVI
File size                                : 927 MiB
Duration                                 : 1 h 53 min
Overall bit rate                         : 1 138 kb/s
FileExtension_Invalid                    : divx

Video
ID                                       : 0
Format                                   : MPEG-4 Visual
Format settings                          : BVOP1
Format settings, BVOP                    : 1
Format settings, QPel                    : No
Format settings, GMC                     : No warppoints
Format settings, Matrix                  : Default (H.263)
Muxing mode                              : Packed bitstream
Codec ID                                 : DX50
Codec ID/Hint                            : DivX 5
Duration                                 : 1 h 53 min
Bit rate                                 : 1 000 kb/s
Nominal bit rate                         : 4 854 kb/s
Width                                    : 640 pixels
Height                                   : 480 pixels
Display aspect ratio                     : 4:3
Frame rate                               : 25.000 FPS
Color space                              : YUV
Chroma subsampling                       : 4:2:0
Bit depth                                : 8 bits
Scan type                                : Progressive
Compression mode                         : Lossy
Bits/(Pixel*Frame)                       : 0.130
Stream size                              : 815 MiB (88%)
Title                                    : Video
Writing library                          : DivX 6.1.1 (UTC 2006-02-01)

Audio
ID                                       : 1
Format                                   : MPEG Audio
Format version                           : Version 1
Format profile                           : Layer 3
Format settings                          : Dual mono
Codec ID                                 : 55
Codec ID/Hint                            : MP3
Duration                                 : 1 h 53 min
Bit rate mode                            : Constant
Bit rate                                 : 128 kb/s
Channel(s)                               : 2 channels
Sampling rate                            : 44.1 kHz
Compression mode                         : Lossy
Stream size                              : 104 MiB (11%)
Alignment                                : Split across interleaves
Interleave, duration                     : 40  ms (1.00 video frame)
Interleave, preload duration             : 500  ms
Title                                    : Audio

General
Complete name                            : 2000s/Season 2009/Formula 1 - s2009e01 - Australian Grand Prix - cd1.mp4
Format                                   : MPEG-4
Format profile                           : Base Media
Codec ID                                 : isom (isom)
File size                                : 680 MiB
Duration                                 : 54 min 29 s
Overall bit rate mode                    : Variable
Overall bit rate                         : 1 745 kb/s
Encoded date                             : UTC 2009-03-28 06:29:02
Tagged date                              : UTC 2009-03-28 06:29:02

Video
ID                                       : 1
Format                                   : AVC
Format/Info                              : Advanced Video Codec
Format profile                           : High@L3.1
Format settings                          : CABAC / 3 Ref Frames
Format settings, CABAC                   : Yes
Format settings, Reference frames        : 3 frames
Codec ID                                 : avc1
Codec ID/Info                            : Advanced Video Coding
Duration                                 : 54 min 29 s
Bit rate                                 : 1 579 kb/s
Maximum bit rate                         : 4 423 kb/s
Width                                    : 704 pixels
Height                                   : 384 pixels
Display aspect ratio                     : 1.85:1
Frame rate mode                          : Constant
Frame rate                               : 25.000 FPS
Color space                              : YUV
Chroma subsampling                       : 4:2:0
Bit depth                                : 8 bits
Scan type                                : Progressive
Bits/(Pixel*Frame)                       : 0.234
Stream size                              : 615 MiB (90%)
Writing library                          : x264 core 67 r1127M 8d82fec
Encoding settings                        : cabac=1 / ref=3 / deblock=1:-1:-1 / analyse=0x3:0x113 / me=umh / subme=7 / psy_rd=1.0:0.0 / mixed_ref=1 / me_range=16 / chroma_me=1 / trellis=0 / 8x8dct=1 / cqm=2 / deadzone=21,10 / chroma_qp_offset=-2 / threads=4 / nr=0 / decimate=1 / mbaff=0 / bframes=3 / b_pyramid=1 / b_adapt=1 / b_bias=0 / direct=3 / wpredb=1 / keyint=250 / keyint_min=25 / scenecut=40 / rc=crf / crf=21.8 / qcomp=0.60 / qpmin=10 / qpmax=51 / qpstep=4 / vbv_maxrate=17500 / vbv_bufsize=14000 / ip_ratio=1.30 / pb_ratio=1.20 / aq=1:0.70
Encoded date                             : UTC 2009-03-28 06:03:04
Tagged date                              : UTC 2009-03-28 06:29:53
Codec configuration box                  : avcC

Audio
ID                                       : 2
Format                                   : AAC LC
Format/Info                              : Advanced Audio Codec Low Complexity
Codec ID                                 : mp4a-40-2
Duration                                 : 54 min 29 s
Bit rate mode                            : Variable
Bit rate                                 : 162 kb/s
Maximum bit rate                         : 185 kb/s
Channel(s)                               : 2 channels
Channel layout                           : L R
Sampling rate                            : 48.0 kHz
Frame rate                               : 46.875 FPS (1024 SPF)
Compression mode                         : Lossy
Stream size                              : 63.3 MiB (9%)
Encoded date                             : UTC 2009-03-28 06:29:47
Tagged date                              : UTC 2009-03-28 06:29:53


General
Complete name                            : 2000s/Season 2009/Formula 1 - s2009e01 - Australian Grand Prix - cd2.mp4
Format                                   : MPEG-4
Format profile                           : Base Media
Codec ID                                 : isom (isom)
File size                                : 1.80 GiB
Duration                                 : 2 h 5 min
Overall bit rate mode                    : Variable
Overall bit rate                         : 2 050 kb/s
Encoded date                             : UTC 2009-03-28 08:34:50
Tagged date                              : UTC 2009-03-28 08:34:50

Video
ID                                       : 1
Format                                   : AVC
Format/Info                              : Advanced Video Codec
Format profile                           : High@L3.1
Format settings                          : CABAC / 3 Ref Frames
Format settings, CABAC                   : Yes
Format settings, Reference frames        : 3 frames
Codec ID                                 : avc1
Codec ID/Info                            : Advanced Video Coding
Duration                                 : 2 h 5 min
Bit rate                                 : 1 884 kb/s
Maximum bit rate                         : 4 165 kb/s
Width                                    : 704 pixels
Height                                   : 384 pixels
Display aspect ratio                     : 1.85:1
Frame rate mode                          : Constant
Frame rate                               : 25.000 FPS
Color space                              : YUV
Chroma subsampling                       : 4:2:0
Bit depth                                : 8 bits
Scan type                                : Progressive
Bits/(Pixel*Frame)                       : 0.279
Stream size                              : 1.65 GiB (92%)
Writing library                          : x264 core 67 r1127M 8d82fec
Encoding settings                        : cabac=1 / ref=3 / deblock=1:-1:-1 / analyse=0x3:0x113 / me=umh / subme=7 / psy_rd=1.0:0.0 / mixed_ref=1 / me_range=16 / chroma_me=1 / trellis=0 / 8x8dct=1 / cqm=2 / deadzone=21,10 / chroma_qp_offset=-2 / threads=4 / nr=0 / decimate=1 / mbaff=0 / bframes=3 / b_pyramid=1 / b_adapt=1 / b_bias=0 / direct=3 / wpredb=1 / keyint=250 / keyint_min=25 / scenecut=40 / rc=crf / crf=22.0 / qcomp=0.60 / qpmin=10 / qpmax=51 / qpstep=4 / vbv_maxrate=17500 / vbv_bufsize=14000 / ip_ratio=1.30 / pb_ratio=1.20 / aq=1:0.70
Encoded date                             : UTC 2009-03-28 06:44:10
Tagged date                              : UTC 2009-03-28 08:37:07
Codec configuration box                  : avcC

Audio
ID                                       : 2
Format                                   : AAC LC
Format/Info                              : Advanced Audio Codec Low Complexity
Codec ID                                 : mp4a-40-2
Duration                                 : 2 h 5 min
Bit rate mode                            : Variable
Bit rate                                 : 162 kb/s
Maximum bit rate                         : 180 kb/s
Channel(s)                               : 2 channels
Channel layout                           : L R
Sampling rate                            : 48.0 kHz
Frame rate                               : 46.875 FPS (1024 SPF)
Compression mode                         : Lossy
Stream size                              : 146 MiB (8%)
Encoded date                             : UTC 2009-03-28 08:35:39
Tagged date                              : UTC 2009-03-28 08:37:07

Category Formula1
Rating N/A
Size 278.19 GB
Show/Hide Files
228 files