Torrent’s details
Name All the Way Up / Baker Mayfield EP1 The Journey Begins 720p 30fps x264 ENG | FOX
Image
Description FOX Sports Films - All the Way Up: Baker Mayfield (a 4 part series)

Mayfield’s college football career saw him go from a walk-on quarterback at Texas Tech to
Heisman trophy winner at Oklahoma and eventual top draft pick of the Cleveland Browns.

The series was produced by Identifi and ACE Media, which is the content development arm of the
NFL Players Association.

In addition to his on-field achievements, All the Way Up will also look at Mayfield’s attempt to run
from police officers, and other off-field transgressions that sometimes put him in the headlines
for the wrong reasons.

__________________________


All.the.Way.Up.Baker.Mayfield.E1.The.Journey.Begins.720p.TYT.mp4 -- 797 MB -- 22 min




 

__________________________

General
Complete name : All.the.Way.Up.Baker.Mayfield.E1.The.Journey.Begins.720p.TYT.mp4
Format : MPEG-4
Format profile : Base Media
Codec ID : isom (isom/iso2/avc1/mp41)
File size : 797 MiB
Duration : 22 min 0 s
Overall bit rate : 5 064 kb/s
Encoded date : UTC 1904-01-01 00:00:00
Tagged date : UTC 1904-01-01 00:00:00
Writing application : Lavf58.17.101

Video
ID : 1
Format : AVC
Format/Info : Advanced Video Codec
Format profile : High@L3.1
Format settings, CABAC : Yes
Format settings, ReFrames : 2 frames
Codec ID : avc1
Codec ID/Info : Advanced Video Coding
Duration : 22 min 0 s
Bit rate : 4 920 kb/s
Width : 1 280 pixels
Height : 720 pixels
Display aspect ratio : 16:9
Frame rate mode : Variable
Frame rate : 30.120 FPS
Minimum frame rate : 29.960 FPS
Maximum frame rate : 60.000 FPS
Original frame rate : 30.000 FPS
Color space : YUV
Chroma subsampling : 4:2:0
Bit depth : 8 bits
Scan type : Progressive
Bits/(Pixel*Frame) : 0.177
Stream size : 776 MiB (97%)
Writing library : x264 core 148 r2579M 73ae2d1
Encoding settings : cabac=1 / ref=2 / deblock=1:0:0 / analyse=0x3:0x113 / me=hex /
subme=2 / psy=1 / psy_rd=1.00:0.00 / mixed_ref=0 / me_range=16 / chroma_me=1 /
trellis=0 / 8x8dct=1 / cqm=0 / deadzone=21,11 / fast_pskip=1 / chroma_qp_offset=0 /
threads=1 / lookahead_threads=1 / sliced_threads=0 / nr=250 / decimate=1 /
interlaced=0 / bluray_compat=0 / stitchable=1 / constrained_intra=0 / bframes=0 /
weightp=1 / keyint=250 / keyint_min=25 / scenecut=40 / intra_refresh=0 /
rc_lookahead=10 / rc=2pass / mbtree=1 / bitrate=4920 / ratetol=1.0 / qcomp=0.60 /
qpmin=5 / qpmax=69 / qpstep=4 / cplxblur=20.0 / qblur=0.5 / ip_ratio=1.40 / aq=1:1.00
Encoded date : UTC 1904-01-01 00:00:00
Tagged date : UTC 1904-01-01 00:00:00

Audio
ID : 2
Format : AAC
Format/Info : Advanced Audio Codec
Format profile : HE-AAC / LC
Codec ID : 40
Duration : 22 min 0 s
Bit rate mode : Constant
Bit rate : 127 kb/s
Channel(s) : 2 channels
Channel positions : Front: L R
Sampling rate : 48.0 kHz / 24.0 kHz
Frame rate : 23.438 FPS (1024 spf)
Compression mode : Lossy
Stream size : 19.9 MiB (3%)
Default : Yes
Alternate group : 1
Encoded date : UTC 1904-01-01 00:00:00
Tagged date : UTC 1904-01-01 00:00:00

Text
ID : 1-CC1
Format : EIA-608
Muxing mode : SCTE 128 / DTVCC Transport
Muxing mode, more info : Muxed in Video #1
Duration : 22 min 0 s
Bit rate mode : Constant
Stream size : 0.00 Byte (0%)
Encoded stream size : 0.00 Byte (0%)


Respect to d41! drunk.gif
Category Documentary
Rating N/A
Size 796.92 MB
Show/Hide Files
1 file