Torrent’s details
Name Cricket.T20.Blast.2018.09.15.Final.Worcestershire.vs.Sussex.Full.Broadcast.WEBRip.1080p.x264-VLF | SKY (EN)
Image
Description Cricket.T20.Blast.2018.09.15.Final.Worcestershire.vs.Sussex.Full.Broadcast.WEBRip.1080p.x264-VLF | SKY (EN)

Do not re-upload elsewhere without permission!
This includes other torrent sites, Usenet, or even direct download links.




Network: Sky Sports
Language: English
Notes: Full Match Broadcast including Coin Toss/Pre-Match/Post-Match.





General
Complete name                            : Cricket.T20.Blast.2018.09.15.Final.Worcestershire.vs.Sussex.SKY.Full.Broadcast.1080p-EN.mp4
Format                                   : MPEG-4
Format profile                           : Base Media
Codec ID                                 : isom (isom/iso2/avc1/mp41)
File size                                : 8.15 GiB
Duration                                 : 3h 44mn
Overall bit rate mode                    : Variable
Overall bit rate                         : 5 207 Kbps
Encoded date                             : UTC 1904-01-01 00:00:00
Tagged date                              : UTC 1904-01-01 00:00:00
Writing application                      : Lavf57.83.100

Video
ID                                       : 1
Format                                   : AVC
Format/Info                              : Advanced Video Codec
Format profile                           : High@L4
Format settings, CABAC                   : Yes
Format settings, ReFrames                : 4 frames
Codec ID                                 : avc1
Codec ID/Info                            : Advanced Video Coding
Duration                                 : 3h 44mn
Bit rate                                 : 5 066 Kbps
Width                                    : 1 920 pixels
Height                                   : 1 080 pixels
Display aspect ratio                     : 16:9
Frame rate mode                          : Variable
Frame rate                               : 30.000 fps
Minimum frame rate                       : 29.990 fps
Maximum frame rate                       : 30.010 fps
Color space                              : YUV
Chroma subsampling                       : 4:2:0
Bit depth                                : 8 bits
Scan type                                : Progressive
Bits/(Pixel*Frame)                       : 0.081
Stream size                              : 7.93 GiB (97%)
Encoded date                             : UTC 1904-01-01 00:00:00
Tagged date                              : UTC 1904-01-01 00:00:00

Audio
ID                                       : 2
Format                                   : AAC
Format/Info                              : Advanced Audio Codec
Format profile                           : LC
Codec ID                                 : 40
Duration                                 : 3h 44mn
Bit rate mode                            : Variable
Bit rate                                 : 132 Kbps
Maximum bit rate                         : 135 Kbps
Channel(s)                               : 2 channels
Channel positions                        : Front: L R
Sampling rate                            : 48.0 KHz
Frame rate                               : 46.875 fps (1024 spf)
Compression mode                         : Lossy
Stream size                              : 209 MiB (3%)
Default                                  : Yes
Alternate group                          : 1
Encoded date                             : UTC 1904-01-01 00:00:00
Tagged date                              : UTC 1904-01-01 00:00:00


Category Cricket
Rating N/A
Size 8.15 GB
Show/Hide Files
1 file