Torrent’s details
Name UFC 229 2018/10/06 Khabib vs McGregor Main Card 720p HDTV 50fps ENG | NOVA SPORT2
Image
Description



Event: UFC 229: “Khabib vs. McGregor”

Date: Sat., Oct. 6, 2018

Location: T-Mobile Arena in Las Vegas, Nevada

Broadcast: Pay-Per-View (PPV), FOX Sports 1, UFC Fight Pass

UFC 229 PPV Main Event:

155 lbs.: UFC Lightweight Champion Khabib Nurmagomedov vs. Conor McGregor

UFC 229 PPV Main Card (10 p.m. ET):

155 lbs.: Tony Ferguson vs. Anthony Pettis
205 lbs.: Ovince Saint Preux vs. Dominick Reyes
265 lbs.: Derrick Lewis vs. Alexander Volkov
115 lbs.: Michelle Waterson vs. Felice Herrig

__________________________


UFC.229.720p.HDTV.x264-VERUM.mkv -- 3.94 GB -- 3 h 0 min

Commercials removed.



General
Complete name : UFC.229.720p.HDTV.x264-VERUM.mkv
Format : Matroska
Format version : Version 4
File size : 3.94 GiB
Duration : 3 h 0 min
Overall bit rate : 3 124 kb/s
Writing application : x264.exe
Writing library : MS-DOS 6.22
Tool : Custom Encoder

Video
ID : 1
Format : AVC
Format/Info : Advanced Video Codec
Format profile : High@L4.1
Format settings : CABAC / 5 Ref Frames
Format settings, CABAC : Yes
Format settings, ReFrames : 5 frames
Codec ID : V_MPEG4/ISO/AVC
Duration : 3 h 0 min
Bit rate : 2 902 kb/s
Width : 1 280 pixels
Height : 720 pixels
Display aspect ratio : 16:9
Frame rate mode : Constant
Frame rate : 50.000 FPS
Color space : YUV
Chroma subsampling : 4:2:0
Bit depth : 8 bits
Scan type : Progressive
Bits/(Pixel*Frame) : 0.063
Stream size : 3.66 GiB (93%)
Writing library : x264 core 157 r2932 303c484
Encoding settings : cabac=1 / ref=5 / deblock=1:0:0 / analyse=0x3:0x113 / me=hex / subme=8 /
psy=1 / psy_rd=1.00:0.00 / mixed_ref=1 / me_range=16 / chroma_me=1 / trellis=2 / 8x8dct=1 /
cqm=0 / deadzone=21,11 / fast_pskip=1 / chroma_qp_offset=-2 / threads=12 /
lookahead_threads=2 / sliced_threads=0 / nr=0 / decimate=1 / interlaced=0 / bluray_compat=0 /
constrained_intra=0 / bframes=3 / b_pyramid=2 / b_adapt=1 / b_bias=0 / direct=3 / weightb=1 /
open_gop=0 / weightp=2 / keyint=250 / keyint_min=25 / scenecut=40 / intra_refresh=0 /
rc_lookahead=50 / rc=crf / mbtree=1 / crf=23.0 / qcomp=0.60 / qpmin=0 / qpmax=69 /
qpstep=4 / ip_ratio=1.40 / aq=1:1.00
Language : English
Default : Yes
Forced : No
Color range : Limited
Matrix coefficients : BT.709

Audio
ID : 2
Format : MPEG Audio
Format version : Version 1
Format profile : Layer 2
Codec ID : A_MPEG/L2
Codec ID/Hint : MP2
Duration : 3 h 0 min
Bit rate mode : Constant
Bit rate : 160 kb/s
Channel(s) : 2 channels
Sampling rate : 48.0 kHz
Compression mode : Lossy
Delay relative to video : -80 ms
Stream size : 207 MiB (5%)
Language : English
Default : Yes
Forced : No


Respect to VERUM! drunk.gif
Category MMA
Rating
Size 3.94 GB
Show/Hide Files
1 file