Torrent’s details
Name MLB.2022.05.10.Houston.Astros.vs.Minnesota.Twins.720p.WEB.H.264-SPORTSNET
Description General
Unique ID : 127315110988217059126088801161480356724 (0x5FC7FF9B3D5A1770A4F83E98A0C5C374)
Complete name : sportsnet-mlb.2022.05.10.houston.astros.vs.minnesota.twins.720p.web.h264.mkv
Format : Matroska
Format version : Version 4
File size : 7.21 GiB
Duration : 3 h 5 min
Overall bit rate : 5 564 kb/s
Encoded date : UTC 2022-05-11 17:50:44
Writing application : mkvmerge v53.0.0 ('Fool's Gold'wink.gif 64-bit
Writing library : libebml v1.4.1 + libmatroska v1.6.2

Video
ID : 1
Format : AVC
Format/Info : Advanced Video Codec
Format profile : High@L4.1
Format settings : CABAC / 4 Ref Frames
Format settings, CABAC : Yes
Format settings, Reference frames : 4 frames
Codec ID : V_MPEG4/ISO/AVC
Duration : 3 h 5 min
Bit rate mode : Constant
Bit rate : 5 472 kb/s
Width : 1 280 pixels
Height : 720 pixels
Display aspect ratio : 16:9
Frame rate mode : Constant
Frame rate : 59.868 FPS
Original frame rate : 59.940 (60000/1001) FPS
Color space : YUV
Chroma subsampling : 4:2:0
Bit depth : 8 bits
Scan type : Progressive
Bits/(Pixel*Frame) : 0.099
Stream size : 7.04 GiB (98%)
Default : Yes
Forced : No

Audio
ID : 2
Format : AAC LC
Format/Info : Advanced Audio Codec Low Complexity
Codec ID : A_AAC-2
Duration : 3 h 5 min
Bit rate : 125 kb/s
Channel(s) : 2 channels
Channel layout : L R
Sampling rate : 48.0 kHz
Frame rate : 46.875 FPS (1024 SPF)
Compression mode : Lossy
Delay relative to video : -7 ms
Stream size : 166 MiB (2%)
Language : English
Default : Yes
Forced : No
Category MLB/Baseball
Rating N/A
Size 7.21 GB
Show/Hide Files
1 file