Torrent’s details
Name Copa.do.Brasil.2019.08.14.SF.L1.Gremio.vs.Atletico.PR.720p.WEBRip.x264-VLF | FSP
Image
Description Copa.do.Brasil.2019.08.14.SF.L1.Gremio.vs.Atletico.PR.720p.WEBRip.x264-VLF | FSP

Release Details
Network: FSP
Language: English
Notes: Full Match

Do not re-upload elsewhere without permission!
This includes other torrent sites, Usenet, direct download links, etc.

Media Info:
General
Complete name                            : Copa.do.Brasil.2019.08.14.SF.L1.Gremio.vs.Atletico.PR.FS.720p-EN.mp4
Format                                   : MPEG-4
Format profile                           : Base Media
Codec ID                                 : isom (isom/iso2/avc1/mp41)
File size                                : 3.22 GiB
Duration                                 : 1h 42mn
Overall bit rate mode                    : Constant
Overall bit rate                         : 4 514 Kbps
Encoded date                             : UTC 1904-01-01 00:00:00
Tagged date                              : UTC 1904-01-01 00:00:00
Writing application                      : Lavf57.83.100

Video
ID                                       : 1
Format                                   : AVC
Format/Info                              : Advanced Video Codec
Format profile                           : High@L4.1
Format settings, CABAC                   : Yes
Format settings, ReFrames                : 4 frames
Codec ID                                 : avc1
Codec ID/Info                            : Advanced Video Coding
Duration                                 : 1h 42mn
Bit rate mode                            : Constant
Bit rate                                 : 4 372 Kbps
Width                                    : 1 280 pixels
Height                                   : 720 pixels
Display aspect ratio                     : 16:9
Frame rate mode                          : Variable
Frame rate                               : 59.940 (59940/1000) fps
Minimum frame rate                       : 1.079 fps
Maximum frame rate                       : 59.960 fps
Original frame rate                      : 59.940 (60000/1001) fps
Color space                              : YUV
Chroma subsampling                       : 4:2:0
Bit depth                                : 8 bits
Scan type                                : Progressive
Bits/(Pixel*Frame)                       : 0.079
Stream size                              : 3.12 GiB (97%)
Encoded date                             : UTC 1904-01-01 00:00:00
Tagged date                              : UTC 1904-01-01 00:00:00

Audio
ID                                       : 2
Format                                   : AAC
Format/Info                              : Advanced Audio Codec
Format profile                           : LC
Codec ID                                 : 40
Duration                                 : 1h 42mn
Bit rate mode                            : Constant
Bit rate                                 : 125 Kbps
Channel(s)                               : 2 channels
Channel positions                        : Front: L R
Sampling rate                            : 48.0 KHz
Frame rate                               : 46.875 fps (1024 spf)
Compression mode                         : Lossy
Stream size                              : 91.6 MiB (3%)
Default                                  : Yes
Alternate group                          : 1
Encoded date                             : UTC 1904-01-01 00:00:00
Tagged date                              : UTC 1904-01-01 00:00:00


Category International Soccer
Rating N/A
Size 3.22 GB
Show/Hide Files
1 file