Torrent’s details
Name The Jump 2019 7 12 720p HDTV x264 720p 60fps EN
Image
Description The Jump 2019 7 12 720p HDTV x264 720p 60fps EN

General
Unique ID                   : 62106215144456225335127941665391831851 (0x2EB938D1944D6CB4F7508B8E0C22EB2B)
Complete name               : The.Jump.2019.07.12.720p.HDTV.x264-NTb.mkv
Format                      : Matroska
Format version              : Version 4
File size                   : 1.37 GiB
Duration                    : 41 min 12 s
Overall bit rate            : 4 767 kb/s

Video
ID                          : 1
Format                      : AVC
Format/Info                 : Advanced Video Codec
Format profile              : High@L4.1
Format settings             : CABAC / 9 Ref Frames
Format settings, CABAC      : Yes
Format settings, ReFrames   : 9 frames
Codec ID                    : V_MPEG4/ISO/AVC
Duration                    : 41 min 12 s
Bit rate                    : 4 224 kb/s
Width                       : 1 280 pixels
Height                      : 720 pixels
Display aspect ratio        : 16:9
Frame rate mode             : Constant
Frame rate                  : 59.940 FPS
Color space                 : YUV
Chroma subsampling          : 4:2:0
Bit depth                   : 8 bits
Scan type                   : Progressive
Bits/(Pixel*Frame)          : 0.076
Stream size                 : 1.22 GiB (89%)
Writing library             : x264 core 148 r2643 5c65704

Audio
ID                          : 2
Format                      : AC-3
Format/Info                 : Audio Coding 3
Commercial name             : Dolby Digital
Codec ID                    : A_AC3
Duration                    : 41 min 12 s
Bit rate mode               : Constant
Bit rate                    : 448 kb/s
Channel(s)                  : 6 channels
Channel layout              : L R C LFE Ls Rs
Sampling rate               : 48.0 kHz
Frame rate                  : 31.250 FPS (1536 SPF)
Bit depth                   : 16 bits
Compression mode            : Lossy
Delay relative to video     : 8 ms
Stream size                 : 132 MiB (9%)
Language                    : English
Service kind                : Complete Main
Default                     : Yes
Category NBA/WNBA
Rating
Size 1.37 GB
Show/Hide Files
1 file