Torrent’s details
Name NBA 2021 Atlanta Hawks vs Los Angeles Lakers 03/20 1080p 60fps EN | SN
Description No Commercials

Source: Sportsnet


General
Unique ID                                : 216148630659417344169062871145315048247 (0xA29CB6471BBAFA199E27BD13DC241B37)
Complete name                            : NBA-2021-03-20.ATL@LAL.720pier.ru.mkv
Format                                   : Matroska
Format version                           : Version 4 / Version 2
File size                                : 3.64 GiB
Duration                                 : 1 h 34 min
Overall bit rate mode                    : Variable
Overall bit rate                         : 5 522 kb/s
Encoded date                             : UTC 2021-03-21 05:01:30
Writing application                      : mkvmerge v16.0.0 ('Protest'wink.gif 64-bit
Writing library                          : libebml v1.3.5 + libmatroska v1.4.8

Video
ID                                       : 1
Format                                   : AVC
Format/Info                              : Advanced Video Codec
Format profile                           : Main@L4.2
Format settings, CABAC                   : Yes
Format settings, ReFrames                : 4 frames
Codec ID                                 : V_MPEG4/ISO/AVC
Duration                                 : 1 h 34 min
Bit rate mode                            : Variable
Bit rate                                 : 5 424 kb/s
Maximum bit rate                         : 8 000 kb/s
Width                                    : 1 920 pixels
Height                                   : 1 080 pixels
Display aspect ratio                     : 16:9
Frame rate mode                          : Constant
Frame rate                               : 59.940 (59940/1000) FPS
Original frame rate                      : 59.940 (60000/1001) FPS
Standard                                 : Component
Color space                              : YUV
Chroma subsampling                       : 4:2:0
Bit depth                                : 8 bits
Scan type                                : Progressive
Bits/(Pixel*Frame)                       : 0.044
Stream size                              : 3.58 GiB (98%)
Default                                  : Yes
Forced                                   : No
Color range                              : Limited
Color primaries                          : BT.709
Transfer characteristics                 : BT.709
Matrix coefficients                      : BT.709

Audio
ID                                       : 2
Format                                   : AAC
Format/Info                              : Advanced Audio Codec
Format profile                           : HE-AAC / LC
Codec ID                                 : A_AAC
Duration                                 : 1 h 34 min
Bit rate                                 : 96.0 kb/s
Channel(s)                               : 2 channels
Channel positions                        : Front: L R
Sampling rate                            : 48.0 kHz / 24.0 kHz
Frame rate                               : 23.438 FPS (1024 spf)
Compression mode                         : Lossy
Delay relative to video                  : 4 ms
Stream size                              : 64.0 MiB (2%)
Language                                 : English
Default                                  : Yes
Forced                                   : No


Category NBA/WNBA
Rating N/A
Size 3.64 GB
Show/Hide Files
1 file