Torrent’s details
Name EPL 2021 Tottenham Hotspur Vs Manchester United 30/10 1080pEN30fps Peacock | SPORTSNET
Image
Description 2021/10/30 English Premier League Match between Tottenham Hotspur and Manchester United.

Source - Scene release.  

Recorded from NBC Peacock broadcast.

Video
ID                             : 1
Format                         : AVC
Format/Info                    : Advanced Video Codec
Format profile                 : High@L4
Format settings, CABAC         : Yes
Format settings, RefFrames     : 4 frames
Codec ID                       : V_MPEG4/ISO/AVC
Duration                       : 1 h 37 min
Bit rate                       : 7 794 kb/s
Width                          : 1 920 pixels
Height                         : 1 080 pixels
Display aspect ratio           : 16:9
Frame rate mode                : Constant
Frame rate                     : 29.970 (29970/1000) FPS
Original frame rate            : 29.970 (30000/1001) FPS
Color space                    : YUV
Chroma subsampling             : 4:2:0
Bit depth                      : 8 bits
Scan type                      : Progressive
Bits/(Pixel*Frame)             : 0.125
Stream size                    : 5.29 GiB (99%)
Language                       : English
Default                        : Yes
Forced                         : No

Audio
ID                             : 2
Format                         : AAC
Format/Info                    : Advanced Audio Codec
Format profile                 : LC
Codec ID                       : A_AAC
Duration                       : 1 h 37 min
Bit rate                       : 93.4 kb/s
Channel(s)                     : 2 channels
Channel positions              : Front: L R
Sampling rate                  : 48.0 kHz
Frame rate                     : 46.875 FPS (1024 SPF)
Compression mode               : Lossy
Delay relative to video        : -2 s 2 ms
Stream size                    : 65.0 MiB (1%)
Language                       : English
Default                        : Yes
Forced                         : No
Category EPL
Rating N/A
Size 5.36 GB
Show/Hide Files
41 files