Torrent’s details
Name Boxing.2022.04.23.David.Adeleye.Vs.Chris.Healey.PPV.1080p.HDTV.H.264-DARKSPORT
Description General
Unique ID : 0 (0x0)
Complete name : Boxing.2022.04.23.David.Adeleye.Vs.Chris.Healey.PPV.1080p.HDTV.H264-DARKSPORT.mkv
Format : Matroska
Format version : Version 4
File size : 2.06 GiB
Duration : 20 min 0 s
Overall bit rate : 14.7 Mb/s
Writing library : BiS - STUPiD (NEW TYPE Ver.)

Video
ID : 1
Format : AVC
Format/Info : Advanced Video Codec
Format profile : High@L4.1
Format settings : CABAC / 4 Ref Frames
Format settings, CABAC : Yes
Format settings, Reference frames : 4 frames
Codec ID : V_MPEG4/ISO/AVC
Duration : 20 min 0 s
Bit rate : 14.2 Mb/s
Width : 1 920 pixels
Height : 1 080 pixels
Display aspect ratio : 16:9
Frame rate mode : Constant
Frame rate : 25.000 FPS
Color space : YUV
Chroma subsampling : 4:2:0
Bit depth : 8 bits
Scan type : Interlaced
Scan type, store method : Separated fields
Scan order : Top Field First
Bits/(Pixel*Frame) : 0.275
Stream size : 1.99 GiB (97%)
Language : English
Default : Yes
Forced : No
Color range : Limited
Color primaries : BT.709
Transfer characteristics : BT.709
Matrix coefficients : BT.709

Audio
ID : 2
Format : MPEG Audio
Format version : Version 1
Format profile : Layer 2
Codec ID : A_MPEG/L2
Codec ID/Hint : MP2
Duration : 20 min 0 s
Bit rate mode : Constant
Bit rate : 192 kb/s
Channel(s) : 2 channels
Sampling rate : 48.0 kHz
Compression mode : Lossy
Stream size : 27.5 MiB (1%)
Language : English
Default : Yes
Forced : No
Category Boxing
Rating N/A
Size 2.06 GB
Show/Hide Files
1 file