Torrent’s details
Name UEFA Champions League 2000 Final Real Madrid vs Valencia 1080i WEB-DL H264 ESP
Image
Description Unfortunately the other release seems dead, so I'm gonna upload the one I could find.


Quote:
General
Unique ID                                : 77055700697090896396516917709865883959 (0x39F8635CDE9A68C76D0C6D387B5A1937)
Complete name                            : UEFA.Champions.League.2000.05.24.Final.1st.Half.Real.Madrid.vs.Valencia.1080i.WEB-DL.DD2.0.H.264-SC.mkv
Format                                   : Matroska
Format version                           : Version 4
File size                                : 2.26 GiB
Duration                                 : 47 min 36 s
Overall bit rate                         : 6 804 kb/s
Encoded date                             : UTC 2020-05-20 17:06:51
Writing application                      : mkvmerge v19.0.0 ('Brave Captain'wink.gif 64-bit
Writing library                          : libebml v1.3.5 + libmatroska v1.4.8

Video
ID                                       : 1
Format                                   : AVC
Format/Info                              : Advanced Video Codec
Format profile                           : High@L4
Format settings                          : CABAC / 4 Ref Frames
Format settings, CABAC                   : Yes
Format settings, Reference frames        : 4 frames
Codec ID                                 : V_MPEG4/ISO/AVC
Duration                                 : 47 min 36 s
Bit rate                                 : 6 128 kb/s
Width                                    : 1 920 pixels
Height                                   : 1 080 pixels
Display aspect ratio                     : 16:9
Frame rate mode                          : Variable
Frame rate                               : 50.000 FPS
Original frame rate                      : 25.000 FPS
Color space                              : YUV
Chroma subsampling                       : 4:2:0
Bit depth                                : 8 bits
Scan type                                : Interlaced
Scan type, store method                  : Separated fields
Scan order                               : Top Field First
Bits/(Pixel*Frame)                       : 0.059
Stream size                              : 2.04 GiB (90%)
Default                                  : Yes
Forced                                   : No
Color range                              : Limited

Audio #1
ID                                       : 2
Format                                   : AC-3
Format/Info                              : Audio Coding 3
Commercial name                          : Dolby Digital
Codec ID                                 : A_AC3
Duration                                 : 47 min 36 s
Bit rate mode                            : Constant
Bit rate                                 : 192 kb/s
Channel(s)                               : 2 channels
Channel layout                           : L R
Sampling rate                            : 48.0 kHz
Frame rate                               : 31.250 FPS (1536 SPF)
Compression mode                         : Lossy
Stream size                              : 65.4 MiB (3%)
Title                                    : Movistar Liga de Campeones HD
Language                                 : Spanish
Service kind                             : Complete Main
Default                                  : Yes
Forced                                   : Yes

Audio #2
ID                                       : 3
Format                                   : MPEG Audio
Format version                           : Version 1
Format profile                           : Layer 2
Codec ID                                 : A_MPEG/L2
Codec ID/Hint                            : MP2
Duration                                 : 47 min 36 s
Bit rate mode                            : Constant
Bit rate                                 : 160 kb/s
Channel(s)                               : 2 channels
Sampling rate                            : 48.0 kHz
Frame rate                               : 41.667 FPS (1152 SPF)
Compression mode                         : Lossy
Stream size                              : 54.5 MiB (2%)
Title                                    : Movistar Liga de Campeones HD
Language                                 : Spanish
Default                                  : No
Forced                                   : No

Audio #3
ID                                       : 4
Format                                   : AC-3
Format/Info                              : Audio Coding 3
Commercial name                          : Dolby Digital
Codec ID                                 : A_AC3
Duration                                 : 47 min 36 s
Bit rate mode                            : Constant
Bit rate                                 : 320 kb/s
Channel(s)                               : 2 channels
Channel layout                           : L R
Sampling rate                            : 48.0 kHz
Frame rate                               : 31.250 FPS (1536 SPF)
Compression mode                         : Lossy
Stream size                              : 109 MiB (5%)
Title                                    : Sport 1
Language                                 : Hungarian
Service kind                             : Complete Main
Default                                  : No
Forced                                   : No

General
Unique ID                                : 292694971397360667808229538253625625823 (0xDC330041714BB63C81FF94E1A4380CDF)
Complete name                            : UEFA.Champions.League.2000.05.24.Final.2nd.Half.Real.Madrid.vs.Valencia.1080i.WEB-DL.DD2.0.H.264-SC.mkv
Format                                   : Matroska
Format version                           : Version 4
File size                                : 2.71 GiB
Duration                                 : 53 min 55 s
Overall bit rate                         : 7 207 kb/s
Encoded date                             : UTC 2020-05-20 17:56:48
Writing application                      : mkvmerge v19.0.0 ('Brave Captain'wink.gif 64-bit
Writing library                          : libebml v1.3.5 + libmatroska v1.4.8

Video
ID                                       : 1
Format                                   : AVC
Format/Info                              : Advanced Video Codec
Format profile                           : High@L4
Format settings                          : CABAC / 4 Ref Frames
Format settings, CABAC                   : Yes
Format settings, Reference frames        : 4 frames
Codec ID                                 : V_MPEG4/ISO/AVC
Duration                                 : 53 min 55 s
Bit rate                                 : 6 531 kb/s
Width                                    : 1 920 pixels
Height                                   : 1 080 pixels
Display aspect ratio                     : 16:9
Frame rate mode                          : Variable
Frame rate                               : 50.000 FPS
Original frame rate                      : 25.000 FPS
Color space                              : YUV
Chroma subsampling                       : 4:2:0
Bit depth                                : 8 bits
Scan type                                : Interlaced
Scan type, store method                  : Separated fields
Scan order                               : Top Field First
Bits/(Pixel*Frame)                       : 0.063
Stream size                              : 2.46 GiB (91%)
Default                                  : Yes
Forced                                   : No
Color range                              : Limited

Audio #1
ID                                       : 2
Format                                   : AC-3
Format/Info                              : Audio Coding 3
Commercial name                          : Dolby Digital
Codec ID                                 : A_AC3
Duration                                 : 53 min 55 s
Bit rate mode                            : Constant
Bit rate                                 : 192 kb/s
Channel(s)                               : 2 channels
Channel layout                           : L R
Sampling rate                            : 48.0 kHz
Frame rate                               : 31.250 FPS (1536 SPF)
Compression mode                         : Lossy
Stream size                              : 74.1 MiB (3%)
Title                                    : Movistar Liga de Campeones HD
Language                                 : Spanish
Service kind                             : Complete Main
Default                                  : Yes
Forced                                   : Yes

Audio #2
ID                                       : 3
Format                                   : MPEG Audio
Format version                           : Version 1
Format profile                           : Layer 2
Codec ID                                 : A_MPEG/L2
Codec ID/Hint                            : MP2
Duration                                 : 53 min 55 s
Bit rate mode                            : Constant
Bit rate                                 : 160 kb/s
Channel(s)                               : 2 channels
Sampling rate                            : 48.0 kHz
Frame rate                               : 41.667 FPS (1152 SPF)
Compression mode                         : Lossy
Stream size                              : 61.7 MiB (2%)
Title                                    : Movistar Liga de Campeones HD
Language                                 : Spanish
Default                                  : No
Forced                                   : No

Audio #3
ID                                       : 4
Format                                   : AC-3
Format/Info                              : Audio Coding 3
Commercial name                          : Dolby Digital
Codec ID                                 : A_AC3
Duration                                 : 53 min 55 s
Bit rate mode                            : Constant
Bit rate                                 : 320 kb/s
Channel(s)                               : 2 channels
Channel layout                           : L R
Sampling rate                            : 48.0 kHz
Frame rate                               : 31.250 FPS (1536 SPF)
Compression mode                         : Lossy
Stream size                              : 123 MiB (4%)
Title                                    : Sport 1
Language                                 : Hungarian
Service kind                             : Complete Main
Default                                  : No
Forced                                   : No


Category European Soccer
Rating N/A
Size 4.98 GB
Show/Hide Files
2 files