Torrent’s details
Name NBA RS 2021 Utah Jazz vs Philadelphia 76ers 09 12 1080pEN60fps NBCSP
Image
Description General
Unique ID                      : 167850716139298377877996605771677845940 (0x7E46DF3E02A133636AF61902F72A49B4)
Complete name                  : H:NBA.2021.12.09.Jazz@76ers.1080p60.mkv
Format                         : Matroska
Format version                 : Version 4 / Version 2
File size                      : 5.39 GiB
Duration                       : 1h 35mn
Overall bit rate               : 8 064 Kbps
Encoded date                   : UTC 2021-12-10 04:38:05
Writing application            : mkvmerge v56.1.0 ('My Friend'wink.gif 64-bit
Writing library                : libebml v1.4.2 + libmatroska v1.6.4

Video
ID                             : 1
Format                         : AVC
Format/Info                    : Advanced Video Codec
Format profile                 : Main@L4.2
Format settings, CABAC         : Yes
Format settings, ReFrames      : 3 frames
Codec ID                       : V_MPEG4/ISO/AVC
Duration                       : 1h 35mn
Bit rate                       : 7 929 Kbps
Width                          : 1 920 pixels
Height                         : 1 080 pixels
Display aspect ratio           : 16:9
Frame rate mode                : Constant
Frame rate                     : 59.940 (60000/1001) fps
Standard                       : Component
Color space                    : YUV
Chroma subsampling             : 4:2:0
Bit depth                      : 8 bits
Scan type                      : Progressive
Bits/(Pixel*Frame)             : 0.064
Stream size                    : 5.30 GiB (98%)
Default                        : Yes
Forced                         : No
Color range                    : Limited
Color primaries                : BT.709
Transfer characteristics       : BT.709
Matrix coefficients            : BT.709

Audio
ID                             : 2
Format                         : AAC
Format/Info                    : Advanced Audio Codec
Format profile                 : LC
Codec ID                       : A_AAC
Duration                       : 1h 35mn
Bit rate                       : 132 Kbps
Channel(s)                     : 2 channels
Channel positions              : Front: L R
Sampling rate                  : 44.1 KHz
Frame rate                     : 43.066 fps (1024 spf)
Compression mode               : Lossy
Stream size                    : 89.4 MiB (2%)
Default                        : Yes
Forced                         : No
Category NBA/WNBA
Rating N/A
Size 5.39 GB
Show/Hide Files
1 file