Torrent’s details
Name UFC Fight Night 184 Overeem vs Volkov Main Card 2021/02/06 1080p HDTV 50fps | VERUM
Image
Description UFC Fight Night 184 [aka UFC Vegas 18] Overeem vs. Volkov

Date: Sat., Feb. 6, 2021
Location: UFC APEX in Las Vegas, Nevada, U.S.A.

UFC Vegas 18 Main Event:
265 lbs.: Alistair Overeem vs. Alexander Volkov

UFC Vegas 18 Main Card:
135 lbs.: Frankie Edgar vs. Cory Sandhagen
155 lbs.: Clay Guida vs. Michael Johnson
125 lbs.: Manel Kape vs. Alexandre Pantoja
155 lbs.: Beneil Dariush vs. Diego Ferreira
_____________

General
Unique ID : 275754108178815868140500079526960536366 (0xCF744F365776C4BE210BB428641D9B2E)
Complete name : ufc.fight.night.184.overeem.vs.volkov.1080p.hdtv.x264-verum.mkv
Format : Matroska
Format version : Version 4
File size : 10.00 GiB
Duration : 3 h 1 min
Overall bit rate : 7 895 kb/s
Encoded date : UTC 2021-02-07 11:21:25
Writing application : mkvmerge v30.1.0 ('Forever And More' ) 64-bit
Writing library : libebml v1.3.6 + libmatroska v1.4.9

Video
ID : 1
Format : AVC
Format/Info : Advanced Video Codec
Format profile : High@L4.2
Format settings : CABAC / 4 Ref Frames
Format settings, CABAC : Yes
Format settings, Reference frames : 4 frames
Codec ID : V_MPEG4/ISO/AVC
Duration : 3 h 1 min
Bit rate : 7 508 kb/s
Width : 1 920 pixels
Height : 1 080 pixels
Display aspect ratio : 16:9
Frame rate mode : Constant
Frame rate : 50.000 FPS
Color space : YUV
Chroma subsampling : 4:2:0
Bit depth : 8 bits
Scan type : Progressive
Bits/(Pixel*Frame) : 0.072
Stream size : 9.51 GiB (95%)
Writing library : x264 core 161 r3033 0d754ec
Encoding settings : cabac=1 / ref=4 / deblock=1:0:0 / analyse=0x3:0x113 / me=hex / subme=8 / psy=1 /
psy_rd=1.00:0.00 / mixed_ref=1 / me_range=16 / chroma_me=1 / trellis=2 / 8x8dct=1 / cqm=0 /
deadzone=21,11 / fast_pskip=1 / chroma_qp_offset=-2 / threads=24 / lookahead_threads=4 /
sliced_threads=0 / nr=0 / decimate=1 / interlaced=0 / bluray_compat=0 / constrained_intra=0 / bframes=3 /
b_pyramid=2 / b_adapt=1 / b_bias=0 / direct=3 / weightb=1 / open_gop=0 / weightp=2 / keyint=250 /
keyint_min=25 / scenecut=40 / intra_refresh=0 / rc_lookahead=50 / rc=crf / mbtree=1 / crf=22.0 / qcomp=0.60 /
qpmin=0 / qpmax=69 / qpstep=4 / ip_ratio=1.40 / aq=1:1.00
Default : Yes
Forced : No
Color range : Limited
Color primaries : BT.709
Transfer characteristics : BT.709
Matrix coefficients : BT.709

Audio
ID : 2
Format : MPEG Audio
Format version : Version 1
Format profile : Layer 2
Codec ID : A_MPEG/L2
Codec ID/Hint : MP2
Duration : 3 h 1 min
Bit rate mode : Constant
Bit rate : 384 kb/s
Channel(s) : 2 channels
Sampling rate : 48.0 kHz
Frame rate : 41.667 FPS (1152 SPF)
Compression mode : Lossy
Stream size : 498 MiB (5%)
Language : English
Default : Yes
Forced : No

Respect to VERUM!  cool2.gifdrunk.gifsleep.gif
Category MMA
Rating N/A
Size 10.00 GB
Show/Hide Files
1 file