Torrent’s details
Name MLS 2020 09 02 Nashville SC vs. Orlando City SC unedited 720p60
Description MLS Regular Season
Nashville SC vs. Orlando City SC

Nissan Stadium, Nashville, TN

This is the unedited broadcast from ESPN+, so it might have commercials.

Media info
General
Complete name                            : 2020-09-02 Nashville SC vs. Orlando City SC unedited.mp4
Format                                   : MPEG-4
Format profile                           : Base Media
Codec ID                                 : isom (isom/iso2/avc1/mp41)
File size                                : 6.05 GiB
Duration                                 : 2 h 3 min
Overall bit rate mode                    : Variable
Overall bit rate                         : 7 025 kb/s
Writing application                      : Lavf58.29.100

Video
ID                                       : 1
Format                                   : AVC
Format/Info                              : Advanced Video Codec
Format profile                           : High@L4
Format settings                          : CABAC / 4 Ref Frames
Format settings, CABAC                   : Yes
Format settings, Reference frames        : 4 frames
Codec ID                                 : avc1
Codec ID/Info                            : Advanced Video Coding
Duration                                 : 2 h 3 min
Bit rate mode                            : Constant
Bit rate                                 : 6 872 kb/s
Width                                    : 1 280 pixels
Height                                   : 720 pixels
Display aspect ratio                     : 16:9
Frame rate mode                          : Variable
Frame rate                               : 59.940 (60000/1001) FPS
Minimum frame rate                       : 21.378 FPS
Maximum frame rate                       : 59.960 FPS
Color space                              : YUV
Chroma subsampling                       : 4:2:0
Bit depth                                : 8 bits
Scan type                                : Progressive
Bits/(Pixel*Frame)                       : 0.124
Stream size                              : 5.92 GiB (98%)
Codec configuration box                  : avcC

Audio
ID                                       : 2
Format                                   : AAC LC
Format/Info                              : Advanced Audio Codec Low Complexity
Codec ID                                 : mp4a-40-2
Duration                                 : 2 h 3 min
Bit rate mode                            : Variable
Bit rate                                 : 126 kb/s
Channel(s)                               : 2 channels
Channel layout                           : L R
Sampling rate                            : 48.0 kHz
Frame rate                               : 46.875 FPS (1024 SPF)
Compression mode                         : Lossy
Stream size                              : 111 MiB (2%)
Default                                  : Yes
Alternate group                          : 1

Text #1
ID                                       : 1-CC1
Format                                   : EIA-608
Muxing mode                              : SCTE 128 / DTVCC Transport
Muxing mode, more info                   : Muxed in Video #1
Duration                                 : 2 h 3 min
Bit rate mode                            : Constant
Stream size                              : 0.00 Byte (0%)
CaptionServiceName                       : CC1

Text #2
ID                                       : 1-1
Format                                   : EIA-708
Muxing mode                              : SCTE 128 / DTVCC Transport
Muxing mode, more info                   : Muxed in Video #1
Duration                                 : 2 h 3 min
Bit rate mode                            : Constant
Stream size                              : 0.00 Byte (0%)

Category International Soccer
Rating N/A
Size 6.05 GB
Show/Hide Files
1 file