Torrent’s details
Name UCL.2022-23.Chelsea.vs.Dinamo.Zagreb.02.11.2022.2160p.UHDTV.AAC2.0.H.265-playTV RO
Description General
Unique ID                                : 295975347747139492773438608913129955874 (0xDEAAC74BF35A39AB00F3DF05FDE26222)
Complete name                            : UCL.2022-23.Chelsea.vs.Dinamo.Zagreb.02.11.2022.2160p.UHDTV.AAC2.0.H.265-playTV.mkv
Format                                   : Matroska
Format version                           : Version 4
File size                                : 21.5 GiB
Duration                                 : 2 h 0 min
Overall bit rate                         : 25.4 Mb/s
Encoded date                             : UTC 2022-11-03 11:14:18
Writing application                      : mkvmerge v53.0.0 ('Fool's Gold'wink.gif 64-bit
Writing library                          : libebml v1.4.1 + libmatroska v1.6.2

Video
ID                                       : 1
Format                                   : HEVC
Format/Info                              : High Efficiency Video Coding
Format profile                           : Main 10@L5.1@High
Codec ID                                 : V_MPEGH/ISO/HEVC
Duration                                 : 2 h 0 min
Bit rate                                 : 25.3 Mb/s
Width                                    : 3 840 pixels
Height                                   : 2 160 pixels
Display aspect ratio                     : 16:9
Frame rate mode                          : Constant
Frame rate                               : 50.000 FPS
Standard                                 : Component
Color space                              : YUV
Chroma subsampling                       : 4:2:0 (Type 0)
Bit depth                                : 10 bits
Bits/(Pixel*Frame)                       : 0.061
Stream size                              : 21.4 GiB (99%)
Default                                  : Yes
Forced                                   : No
Color range                              : Limited
Color primaries                          : BT.709
Transfer characteristics                 : BT.709
Matrix coefficients                      : BT.709

Audio
ID                                       : 2
Format                                   : AAC LC
Format/Info                              : Advanced Audio Codec Low Complexity
Codec ID                                 : A_AAC-2
Duration                                 : 2 h 0 min
Bit rate                                 : 125 kb/s
Channel(s)                               : 2 channels
Channel layout                           : L R
Sampling rate                            : 48.0 kHz
Frame rate                               : 46.875 FPS (1024 SPF)
Compression mode                         : Lossy
Delay relative to video                  : -40 ms
Stream size                              : 108 MiB (0%)
Language                                 : Romanian
Default                                  : Yes
Forced                                   : No



UCL.2022-23.Chelsea.vs.Dinamo.Zagreb.02.11.2022.2160p.UHDTV.AAC2.0.H.265-playTV


* RELEASE iNFO * wrote:

█      RUNTIME............: 2 h 00 min                                               █
█      VIDEO CODEC........: HEVC                                                     █
█      FRAMERATE..........: 50.000 FPS                                               █
█      BITRATE............: 25.3 Mbps                                                █
█      RELEASE SIZE.......: 21.5 GiB                                                 █
█      RESOLUTION.........: 3840x2160 - 10-bit                                       █
█      ASPECT RATIO.......: 16:9                                                     █
█      AUDIO..............: Romanian @ AAC LC - 2 channels / 125 Kbps                █
█      SOURCE.............: DIGI 4K                                                  █



* SCREENSHOTS *
  -----------  




* NOTES *
-----------

Enjoy. smile1.gif
Category European Soccer
Rating N/A
Size 21.47 GB
Show/Hide Files
1 file