Torrent’s details
Name Formula 1 2020/10/24 Portuguese Grand Prix Qualifying 1080p HDTV 50fps ENG | smcgill1969 / SKY
Image
Description COMPLETE SKY Sports F1 Qualifying coverage -- approx. 3 hrs 6 minutes in all!

___________________________


Formula.1.2020x12.Portugal.Qualifying.SkyF1HD.1080p -- an smcgill1969 release

* 01.Pre-Qualifying.Buildup.mp4 -------- 2.43 GB -- 55 m 32 s
* 02.Qualifying.Session.mp4 -------------- 4.62 GB -- 1 h 45 m
* 03.Post-Qualifying.Analysis.mp4 ----- 1.13 GB -- 25 m 55 s

___________________________



General
Complete name : 02.Qualifying.Session.mp4
Format : MPEG-4
Format profile : Base Media
Codec ID : isom (isom/iso2/avc1/mp41)
File size : 4.62 GiB
Duration : 1 h 45 min
Overall bit rate mode : Variable
Overall bit rate : 6 268 kb/s
Encoded date : UTC 1904-01-01 00:00:00
Tagged date : UTC 1904-01-01 00:00:00
Writing application : Lavf58.17.101

Video
ID : 1
Format : AVC
Format/Info : Advanced Video Codec
Format profile : High@L4.2
Format settings, CABAC : Yes
Format settings, ReFrames : 2 frames
Codec ID : avc1
Codec ID/Info : Advanced Video Coding
Duration : 1 h 45 min
Bit rate mode : Variable
Bit rate : 5 754 kb/s
Maximum bit rate : 12.4 Mb/s
Width : 1 920 pixels
Height : 1 080 pixels
Original height : 1 088 pixels
Display aspect ratio : 16:9
Original display aspect ratio : 16:9
Frame rate mode : Variable
Frame rate : 50.000 FPS
Minimum frame rate : 28.868 FPS
Maximum frame rate : 50.000 FPS
Color space : YUV
Chroma subsampling : 4:2:0
Bit depth : 8 bits
Scan type : Progressive
Bits/(Pixel*Frame) : 0.055
Stream size : 4.24 GiB (92%)
Language : English
Encoded date : UTC 1904-01-01 00:00:00
Tagged date : UTC 1904-01-01 00:00:00

Audio
ID : 2
Format : AAC
Format/Info : Advanced Audio Codec
Format profile : LC
Codec ID : 40
Duration : 1 h 45 min
Bit rate mode : Constant
Bit rate : 257 kb/s
Channel(s) : 2 channels
Channel positions : Front: L R
Sampling rate : 48.0 kHz
Frame rate : 46.875 FPS (1024 spf)
Compression mode : Lossy
Stream size : 194 MiB (4%)
Language : English
Default : Yes
Alternate group : 1
Encoded date : UTC 1904-01-01 00:00:00
Tagged date : UTC 1904-01-01 00:00:00


Respect to Mr. McGill! cool2.gif drunk.gif sleep.gif
Category Formula1
Rating N/A
Size 8.18 GB
Show/Hide Files
3 files