Torrent’s details
Name Detail: From The Mind of Geno Auriemma S01E04 Obi Toppin 720p ESPN WEB-DL AAC2.0 H.264-KiMCHi
Image
Description
Quote:
This release is sourced from ESPN and is not transcoded, just remuxed from the direct stream.



General
Unique ID                                : 240326248436002076835518660857088942108 (0xB4CD26DE3BC74EA04823B446A65BA01C)
Complete name                            : Detail.From.the.Mind.of.Geno.Auriemma.S01E04.Obi.Toppin.720p.ESPN.WEB-DL.AAC2.0.H.264-KiMCHi.mkv
Format                                   : Matroska
Format version                           : Version 4
File size                                : 891 MiB
Duration                                 : 17 min 56 s
Overall bit rate                         : 6 949 kb/s
Movie name                               : Detail: From The Mind of Geno Auriemma - Obi Toppin [S01E04] 720p ESPN WEB-DL - KiMCHi
Encoded date                             : UTC 2020-10-03 03:43:22
Writing application                      : mkvmerge v38.0.0 ('The Silent Type'wink.gif 64-bit
Writing library                          : libebml v1.3.9 + libmatroska v1.5.2

Video
ID                                       : 1
Format                                   : AVC
Format/Info                              : Advanced Video Codec
Format profile                           : High@L4
Format settings                          : CABAC / 4 Ref Frames
Format settings, CABAC                   : Yes
Format settings, Reference frames        : 4 frames
Codec ID                                 : V_MPEG4/ISO/AVC
Duration                                 : 17 min 56 s
Bit rate mode                            : Constant
Bit rate                                 : 6 872 kb/s
Width                                    : 1 280 pixels
Height                                   : 720 pixels
Display aspect ratio                     : 16:9
Frame rate mode                          : Constant
Frame rate                               : 59.940 (60000/1001) FPS
Color space                              : YUV
Chroma subsampling                       : 4:2:0
Bit depth                                : 8 bits
Scan type                                : Progressive
Bits/(Pixel*Frame)                       : 0.124
Stream size                              : 875 MiB (98%)
Default                                  : Yes
Forced                                   : No

Audio
ID                                       : 2
Format                                   : AAC LC
Format/Info                              : Advanced Audio Codec Low Complexity
Codec ID                                 : A_AAC-2
Duration                                 : 17 min 56 s
Bit rate                                 : 125 kb/s
Channel(s)                               : 2 channels
Channel layout                           : L R
Sampling rate                            : 48.0 kHz
Frame rate                               : 46.875 FPS (1024 SPF)
Compression mode                         : Lossy
Delay relative to video                  : 21 ms
Stream size                              : 16.1 MiB (2%)
Language                                 : English
Default                                  : Yes
Forced                                   : No
Category NCAA Basket/Football
Rating N/A
Size 891.43 MB
Show/Hide Files
1 file