Torrent’s details
Name America's Caddie S03E06 The Travelers Championship 2022 720p ESPN WEB-DL AAC2.0 H.264-KiMCHi
Image
Description
Quote:
This release is sourced from ESPN and is not transcoded.



General
Unique ID                                : 9551413708377702774716669051304750478 (0x72F890DD37B40FA8F0AD5DC0CA12D8E)
Complete name                            : Americas.Caddie.S03E06.The.Travelers.Championship.2022.720p.ESPN.WEB-DL.AAC2.0.H.264-KiMCHi.mkv
Format                                   : Matroska
Format version                           : Version 4
File size                                : 1.05 GiB
Duration                                 : 21 min 39 s
Overall bit rate                         : 6 954 kb/s
Movie name                               : America's Caddie - The Travelers Championship 2022 [S03E06] 720p ESPN WEB-DL - KiMCHi
Encoded date                             : UTC 2022-06-28 20:10:43
Writing application                      : mkvmerge v66.0.0 ('Josie'wink.gif 64-bit
Writing library                          : libebml v1.4.2 + libmatroska v1.6.4

Video
ID                                       : 1
Format                                   : AVC
Format/Info                              : Advanced Video Codec
Format profile                           : High@L4
Format settings                          : CABAC / 4 Ref Frames
Format settings, CABAC                   : Yes
Format settings, Reference frames        : 4 frames
Codec ID                                 : V_MPEG4/ISO/AVC
Duration                                 : 21 min 39 s
Bit rate mode                            : Constant
Bit rate                                 : 6 872 kb/s
Width                                    : 1 280 pixels
Height                                   : 720 pixels
Display aspect ratio                     : 16:9
Frame rate mode                          : Constant
Frame rate                               : 59.940 (60000/1001) FPS
Color space                              : YUV
Chroma subsampling                       : 4:2:0
Bit depth                                : 8 bits
Scan type                                : Progressive
Bits/(Pixel*Frame)                       : 0.124
Stream size                              : 1.03 GiB (98%)
Language                                 : English
Default                                  : Yes
Forced                                   : No

Audio
ID                                       : 2
Format                                   : AAC LC
Format/Info                              : Advanced Audio Codec Low Complexity
Codec ID                                 : A_AAC-2
Duration                                 : 21 min 39 s
Bit rate                                 : 125 kb/s
Channel(s)                               : 2 channels
Channel layout                           : L R
Sampling rate                            : 48.0 kHz
Frame rate                               : 46.875 FPS (1024 SPF)
Compression mode                         : Lossy
Delay relative to video                  : 9 ms
Stream size                              : 19.4 MiB (2%)
Language                                 : English
Default                                  : Yes
Forced                                   : No
Category Documentary
Rating N/A
Size 1.05 GB
Show/Hide Files
1 file