Torrent’s details
Name FIS.Freestyle.Skiing.WC.SkiCross.Arosa.SUI.2020-12-16.WEB.X264.NoComm-X
Description General
Complete name                            : FIS.Freestyle.Skiing.WC.SkiCross.Arosa.SUI.2020-12-16.WEB.X264.NoComm-X.mp4
Format                                   : MPEG-4
Format profile                           : Base Media / Version 2
Codec ID                                 : mp42 (mp42/iso2/isom/avc1)
File size                                : 1.01 GiB
Duration                                 : 1 h 15 min
Overall bit rate mode                    : Variable
Overall bit rate                         : 1 922 kb/s
Encoded date                             : UTC 2020-12-16 17:44:12
Tagged date                              : UTC 2020-12-16 17:44:12

Video
ID                                       : 1
Format                                   : AVC
Format/Info                              : Advanced Video Codec
Format profile                           : Main@L4
Format settings                          : CABAC / 1 Ref Frames
Format settings, CABAC                   : Yes
Format settings, Reference frames        : 1 frame
Format settings, GOP                     : M=1, N=60
Codec ID                                 : avc1
Codec ID/Info                            : Advanced Video Coding
Duration                                 : 1 h 15 min
Bit rate mode                            : Variable
Bit rate                                 : 1 810 kb/s
Width                                    : 852 pixels
Height                                   : 480 pixels
Display aspect ratio                     : 16:9
Frame rate mode                          : Constant
Frame rate                               : 29.970 (30000/1001) FPS
Color space                              : YUV
Chroma subsampling                       : 4:2:0
Bit depth                                : 8 bits
Scan type                                : Progressive
Bits/(Pixel*Frame)                       : 0.148
Stream size                              : 967 MiB (93%)
Encoded date                             : UTC 2020-12-16 17:44:12
Tagged date                              : UTC 2020-12-16 17:44:12
Color range                              : Limited
Codec configuration box                  : avcC

Audio
ID                                       : 2
Format                                   : AAC LC
Format/Info                              : Advanced Audio Codec Low Complexity
Codec ID                                 : mp4a-40-2
Duration                                 : 1 h 15 min
Source duration                          : 1 h 15 min
Bit rate mode                            : Constant
Bit rate                                 : 128 kb/s
Channel(s)                               : 2 channels
Channel layout                           : L R
Sampling rate                            : 44.1 kHz
Frame rate                               : 43.066 FPS (1024 SPF)
Compression mode                         : Lossy
Stream size                              : 67.7 MiB (7%)
Source stream size                       : 67.7 MiB (7%)
Category WinterSport
Rating N/A
Size 1.01 GB
Show/Hide Files
1 file