Torrent’s details
Name NBA RS 2009 Washington Wizards vs Cleveland Cavaliers 02/04/2009 576iRu25fps I NTV+ Reshetov
Image
Description Translation: NBA TV+NTV Plus
Language: Russian
Commentator: Mikhail Reshetov
No commercials
Full game

Complete name                            : G:2009-04-02.Wizards.vs.Cavaliers.Russian.Reshetov.mpg
Format                                   : MPEG-PS
File size                                : 4.21 GiB
Duration                                 : 1 h 39 min
Overall bit rate mode                    : Variable
Overall bit rate                         : 6 078 kb/s
Writing library                          : (dvd5: Oct 19 2015)

Video
ID                                       : 224 (0xE0)
Format                                   : MPEG Video
Format version                           : Version 2
Format profile                           : Main@Main
Format settings                          : CustomMatrix / BVOP
Format settings, BVOP                    : Yes
Format settings, Matrix                  : Custom
Format settings, GOP                     : Variable
Format settings, picture structure       : Frame
Duration                                 : 1 h 39 min
Bit rate mode                            : Variable
Bit rate                                 : 5 701 kb/s
Maximum bit rate                         : 9 000 kb/s
Width                                    : 720 pixels
Height                                   : 576 pixels
Display aspect ratio                     : 16:9
Frame rate                               : 25.000 FPS
Standard                                 : PAL
Color space                              : YUV
Chroma subsampling                       : 4:2:0
Bit depth                                : 8 bits
Scan type                                : Interlaced
Scan order                               : Top Field First
Compression mode                         : Lossy
Bits/(Pixel*Frame)                       : 0.550
Time code of first frame                 : 00:00:00:00
Time code source                         : Group of pictures header
GOP, Open/Closed                         : Open
GOP, Open/Closed of first frame          : Closed
Stream size                              : 3.95 GiB (94%)
Writing library                          : (dvd5: Oct 19 2015)

Audio
ID                                       : 189 (0xBD)-128 (0x80)
Format                                   : AC-3
Format/Info                              : Audio Coding 3
Commercial name                          : Dolby Digital
Muxing mode                              : DVD-Video
Duration                                 : 1 h 39 min
Bit rate mode                            : Constant
Bit rate                                 : 256 kb/s
Channel(s)                               : 2 channels
Channel layout                           : L R
Sampling rate                            : 48.0 kHz
Frame rate                               : 31.250 FPS (1536 SPF)
Bit depth                                : 16 bits
Compression mode                         : Lossy
Stream size                              : 181 MiB (4%)
Service kind                             : Complete Main
Category NBA/WNBA
Rating N/A
Size 4.21 GB
Show/Hide Files
1 file