Torrent’s details
Name Cricket.2018.Australia.vs.India.1st.Test.Day.3.Highlights.1080p.WEBRip.x264-VLF | BT
Image
Description Cricket.2018.Australia.vs.India.1st.Test.Day.3.Highlights.1080p.WEBRip.x264-VLF | BT

Do not re-upload elsewhere without permission!
This includes other torrent sites, Usenet, or even direct download links.




Network: BT Sport
Language: English
Notes: Official Highlights, Adverts Removed


Coming Soon

General
Complete name                            : Cricket.2018.Aus.vs.India.1TD3.HL.BT.1080p-EN.mp4
Format                                   : MPEG-4
Format profile                           : Base Media
Codec ID                                 : isom (isom/iso2/avc1/mp41)
File size                                : 2.18 GiB
Duration                                 : 47mn 4s
Overall bit rate mode                    : Constant
Overall bit rate                         : 6 626 Kbps
Encoded date                             : UTC 1904-01-01 00:00:00
Tagged date                              : UTC 1904-01-01 00:00:00
Writing application                      : Lavf57.83.100

Video
ID                                       : 1
Format                                   : AVC
Format/Info                              : Advanced Video Codec
Format profile                           : High@L4.2
Format settings, CABAC                   : Yes
Format settings, ReFrames                : 2 frames
Codec ID                                 : avc1
Codec ID/Info                            : Advanced Video Coding
Duration                                 : 47mn 4s
Bit rate mode                            : Constant
Bit rate                                 : 6 500 Kbps
Width                                    : 1 920 pixels
Height                                   : 1 080 pixels
Display aspect ratio                     : 16:9
Frame rate mode                          : Variable
Frame rate                               : 49.761 fps
Minimum frame rate                       : 0.276 fps
Maximum frame rate                       : 50.000 fps
Original frame rate                      : 50.000 fps
Color space                              : YUV
Chroma subsampling                       : 4:2:0
Bit depth                                : 8 bits
Scan type                                : Progressive
Bits/(Pixel*Frame)                       : 0.063
Stream size                              : 2.12 GiB (97%)
Encoded date                             : UTC 1904-01-01 00:00:00
Tagged date                              : UTC 1904-01-01 00:00:00

Audio
ID                                       : 2
Format                                   : AAC
Format/Info                              : Advanced Audio Codec
Format profile                           : LC
Codec ID                                 : 40
Duration                                 : 47mn 4s
Bit rate mode                            : Constant
Bit rate                                 : 164 Kbps
Channel(s)                               : 2 channels
Channel positions                        : Front: L R
Sampling rate                            : 48.0 KHz
Frame rate                               : 46.875 fps (1024 spf)
Compression mode                         : Lossy
Stream size                              : 55.3 MiB (2%)
Default                                  : Yes
Alternate group                          : 1
Encoded date                             : UTC 1904-01-01 00:00:00
Tagged date                              : UTC 1904-01-01 00:00:00


Category Cricket
Rating N/A
Size 2.18 GB
Show/Hide Files
1 file