Torrent’s details
Name UCL.2022-23.Napoli.vs.Liverpool.07.09.2022.1080i.HDTV.MPA2.0.H.264-playTV RO
Description General
Unique ID                                : 109357906702224161790331048466978277366 (0x524591146316A1FE153DDB64C6E587F6)
Complete name                            : UCL.2022-23.Napoli.vs.Liverpool.07.09.2022.1080i.HDTV.MPA2.0.H.264-playTV.mkv
Format                                   : Matroska
Format version                           : Version 4
File size                                : 8.03 GiB
Duration                                 : 1 h 44 min
Overall bit rate                         : 11.0 Mb/s
Encoded date                             : UTC 2022-09-07 21:20:31
Writing application                      : mkvmerge v55.0.0 ('Waiting For Space'wink.gif 64-bit
Writing library                          : libebml v1.4.2 + libmatroska v1.6.4

Video
ID                                       : 1
Format                                   : AVC
Format/Info                              : Advanced Video Codec
Format profile                           : High@L4.1
Format settings                          : CABAC / 4 Ref Frames
Format settings, CABAC                   : Yes
Format settings, Reference frames        : 4 frames
Format settings, GOP                     : M=4, N=24
Codec ID                                 : V_MPEG4/ISO/AVC
Duration                                 : 1 h 44 min
Bit rate                                 : 10.7 Mb/s
Width                                    : 1 920 pixels
Height                                   : 1 080 pixels
Display aspect ratio                     : 16:9
Frame rate mode                          : Variable
Frame rate                               : 50.000 FPS
Original frame rate                      : 25.000 FPS
Color space                              : YUV
Chroma subsampling                       : 4:2:0
Bit depth                                : 8 bits
Scan type                                : Interlaced
Scan type, store method                  : Separated fields
Scan order                               : Top Field First
Bits/(Pixel*Frame)                       : 0.103
Stream size                              : 7.84 GiB (98%)
Default                                  : Yes
Forced                                   : No
Color range                              : Limited
Color primaries                          : BT.709
Transfer characteristics                 : BT.709
Matrix coefficients                      : BT.709

Audio
ID                                       : 2
Format                                   : MPEG Audio
Format version                           : Version 1
Format profile                           : Layer 2
Codec ID                                 : A_MPEG/L2
Codec ID/Hint                            : MP2
Duration                                 : 1 h 44 min
Bit rate mode                            : Constant
Bit rate                                 : 256 kb/s
Channel(s)                               : 2 channels
Sampling rate                            : 48.0 kHz
Frame rate                               : 41.667 FPS (1152 SPF)
Compression mode                         : Lossy
Stream size                              : 192 MiB (2%)
Language                                 : Romanian
Default                                  : Yes
Forced                                   : No
Category European Soccer
Rating N/A
Size 8.03 GB
Show/Hide Files
1 file