Torrent’s details
Name MLB World Series 2022 Game 2 Philadelphia Phillies vs Houston Astros 720p WEB h264 720pEN49fps -SPORTSNET
Image
Description Game 2 of the World Series

Video: MPEG4 Video (H264) 1280x720 59.94fps [V: h264 high L4.1, yuv420p, 1280x720 [default]]
Audio: AAC 48000Hz stereo [A: English [eng] (aac lc, 48000 Hz, stereo) [default]]

General
Unique ID                      : 3128136531610162732913920190645506343 (0x25A7509DB0ECC3E6DC659AC99AB9127)
Complete name                  : E:Samplesportsnet-mlb.world.series.2022.game.2.philadelphia.phillies.vs.houston.astros.720p.web.h264.mkv
Format                         : Matroska
Format version                 : Version 4
File size                      : 6.45 GiB
Duration                       : 2 h 45 min
Overall bit rate               : 5 586 kb/s
Encoded date                   : UTC 2022-10-30 07:47:05
Writing application            : mkvmerge v53.0.0 ('Fool's Gold'wink.gif 64-bit
Writing library                : libebml v1.4.1 + libmatroska v1.6.2

Video
ID                             : 1
Format                         : AVC
Format/Info                    : Advanced Video Codec
Format profile                 : High@L4.1
Format settings                : CABAC / 4 Ref Frames
Format settings, CABAC         : Yes
Format settings, Reference fra : 4 frames
Codec ID                       : V_MPEG4/ISO/AVC
Duration                       : 2 h 45 min
Bit rate mode                  : Constant
Bit rate                       : 5 472 kb/s
Width                          : 1 280 pixels
Height                         : 720 pixels
Display aspect ratio           : 16:9
Frame rate mode                : Constant
Frame rate                     : 59.940 (59940/1000) FPS
Original frame rate            : 59.940 (60000/1001) FPS
Color space                    : YUV
Chroma subsampling             : 4:2:0
Bit depth                      : 8 bits
Scan type                      : Progressive
Bits/(Pixel*Frame)             : 0.099
Stream size                    : 6.30 GiB (98%)
Default                        : Yes
Forced                         : No

Audio
ID                             : 2
Format                         : AAC LC
Format/Info                    : Advanced Audio Codec Low Complexity
Codec ID                       : A_AAC-2
Duration                       : 2 h 45 min
Bit rate                       : 125 kb/s
Channel(s)                     : 2 channels
Channel layout                 : L R
Sampling rate                  : 48.0 kHz
Frame rate                     : 46.875 FPS (1024 SPF)
Compression mode               : Lossy
Delay relative to video        : -92 ms
Stream size                    : 148 MiB (2%)
Language                       : English
Default                        : Yes
Forced                         : No
Category MLB/Baseball
Rating
Size 6.46 GB
Show/Hide Files
5 files