Torrent’s details
Name Formula 1 2018/06/10 Canadian Grand Prix Race 1080p HDTV 50fps ENG | SKY Sports F1 HD
Description COMPLETE SKY Sports F1 Race Day Coverage (approx. 4 hrs 53 min)

Formula.1.2018x07.Canada.Race.SkyF1HD.1080p50 (an smcgill1969 release)

* 01.Pre-Race.Buildup.mp4 ---- 4.15 GB -- 1 h 34 min
* 02.Race.Session.mp4 --------- 5.09 GB -- 1 h 56 min
* 03.Post-Race.Analysis.mp4 -- 3.66 GB -- 1 h 23 min


*** Believe it or not, but I find these files play best with VLC Media Player


___________________________


General
Complete name : 02.Race.Session.mp4
Format : MPEG-4
Format profile : QuickTime
Codec ID : qt 2005.03 (qt )
File size : 5.09 GiB
Duration : 1 h 56 min
Overall bit rate mode : Variable
Overall bit rate : 6 261 kb/s
Encoded date : UTC 2018-06-10 18:05:30
Tagged date : UTC 2018-06-10 20:02:49
Writing library : Apple QuickTime

Video
ID : 1
Format : AVC
Format/Info : Advanced Video Codec
Format profile : High@L4.2
Format settings, CABAC : Yes
Format settings, ReFrames : 2 frames
Format settings, GOP : M=3, N=24
Codec ID : avc1
Codec ID/Info : Advanced Video Coding
Duration : 1 h 56 min
Duration_FirstFrame : 3 ms
Bit rate mode : Variable
Bit rate : 5 995 kb/s
Maximum bit rate : 12.4 Mb/s
Width : 1 920 pixels
Height : 1 080 pixels
Original height : 1 088 pixels
Display aspect ratio : 16:9
Original display aspect ratio : 16:9
Frame rate mode : Constant
Frame rate : 50.000 FPS
Color space : YUV
Chroma subsampling : 4:2:0
Bit depth : 8 bits
Scan type : Progressive
Bits/(Pixel*Frame) : 0.058
Stream size : 4.87 GiB (96%)
Language : English
Encoded date : UTC 2018-06-10 18:05:30
Tagged date : UTC 2018-06-10 20:02:49

Audio
ID : 2
Format : AAC
Format/Info : Advanced Audio Codec
Format profile : LC
Codec ID : 40
Duration : 1 h 56 min
Source duration : 1 h 56 min
Bit rate mode : Constant
Bit rate : 256 kb/s
Channel(s) : 2 channels
Channel positions : Front: L R
Sampling rate : 48.0 kHz
Frame rate : 46.875 FPS (1024 spf)
Compression mode : Lossy
Stream size : 211 MiB (4%)
Source stream size : 211 MiB (4%)
Language : English
Encoded date : UTC 2018-06-10 18:05:30
Tagged date : UTC 2018-06-10 20:02:49


Respect to Mr. McGill! cool2.gif
Category Formula1
Rating
Size 12.91 GB
Show/Hide Files
3 files