Torrent’s details
Name UFC 258 PPV Usman vs Burns Main Card 2021/02/13 720p HDTV 50fps | VERUM
Image
Description UFC 258 PPV - Usman vs. Burns

Date: Sat., Feb. 13, 2021
Location: UFC APEX in Las Vegas, Nevada, U.S.A.

UFC 258 PPV Main Event:
170 lbs.: UFC Welterweight champion Kamaru Usman vs. Gilbert Burns

UFC 258 PPV Main Card:
125 lbs.: Maycee Barber vs. Alexa Grasso
185 lbs.: Kelvin Gastelum vs. Ian Heinisch
145 lbs.: Brian Kelleher vs. Ricky Simon
185 lbs.: Julian Marquez vs. Maki Pitolo
_____________

General
Unique ID : 0 (0x0)
Complete name : ufc.258.usman.vs.burns.ppv.720p.hdtv.x264-verum.mkv
Format : Matroska
Format version : Version 4
File size : 4.37 GiB
Duration : 3 h 16 min
Overall bit rate : 3 178 kb/s
Encoded date : UTC 2010-02-22 21:41:29
Writing application : no_variable_data
Writing library : no_variable_data

Video
ID : 1
Format : AVC
Format/Info : Advanced Video Codec
Format profile : High@L4.1
Format settings : CABAC / 5 Ref Frames
Format settings, CABAC : Yes
Format settings, Reference frames : 5 frames
Codec ID : V_MPEG4/ISO/AVC
Duration : 3 h 16 min
Bit rate : 2 731 kb/s
Width : 1 280 pixels
Height : 720 pixels
Display aspect ratio : 16:9
Frame rate mode : Constant
Frame rate : 50.000 FPS
Color space : YUV
Chroma subsampling : 4:2:0
Bit depth : 8 bits
Scan type : Progressive
Bits/(Pixel*Frame) : 0.059
Stream size : 3.75 GiB (86%)
Writing library : x264 core 161 r3033 0d754ec
Encoding settings : cabac=1 / ref=5 / deblock=1:0:0 / analyse=0x3:0x113 /
me=hex / subme=8 / psy=1 / psy_rd=1.00:0.00 / mixed_ref=1 /
me_range=16 / chroma_me=1 / trellis=2 / 8x8dct=1 / cqm=0 /
deadzone=21,11 / fast_pskip=1 / chroma_qp_offset=-2 / threads=22 /
lookahead_threads=3 / sliced_threads=0 / nr=0 / decimate=1 / interlaced=0 /
bluray_compat=0 / constrained_intra=0 / bframes=3 / b_pyramid=2 /
b_adapt=1 / b_bias=0 / direct=3 / weightb=1 / open_gop=0 / weightp=2 /
keyint=250 / keyint_min=25 / scenecut=40 / intra_refresh=0 /
rc_lookahead=50 / rc=crf / mbtree=1 / crf=23.0 / qcomp=0.60 / qpmin=0 /
qpmax=69 / qpstep=4 / ip_ratio=1.40 / aq=1:1.00
Default : Yes
Forced : No
Color range : Limited
Color primaries : BT.709
Transfer characteristics : BT.709
Matrix coefficients : BT.709
Statistics Tags Issue : no_variable_data 1970-01-01 00:00:00 / no_variable_data 2010-02-22 21:41:29
FromStats_BitRate : 2790582
FromStats_Duration : 03:16:46.840000000
FromStats_FrameCount : 590342
FromStats_StreamSize : 4118495505

Audio
ID : 2
Format : MPEG Audio
Format version : Version 1
Format profile : Layer 2
Format settings : Dual mono
Codec ID : A_MPEG/L2
Codec ID/Hint : MP2
Duration : 3 h 16 min
Bit rate mode : Constant
Bit rate : 384 kb/s
Channel(s) : 2 channels
Sampling rate : 48.0 kHz
Compression mode : Lossy
Stream size : 540 MiB (12%)
Language : English
Default : Yes
Forced : No
Statistics Tags Issue : no_variable_data 1970-01-01 00:00:00 / no_variable_data 2010-02-22 21:41:29
FromStats_BitRate : 384000
FromStats_Duration : 03:16:46.848000000
FromStats_FrameCount : 491952
FromStats_StreamSize : 566728704

Respect to VERUM!  cool2.gifdrunk.gifsleep.gif
Category MMA
Rating N/A
Size 4.37 GB
Show/Hide Files
1 file