Torrent’s details
Name FIFA World Cup 2022 11 24 Uruguay vs South Korea POLISH HDR 2160p HDTV DDPA51 H265
Description



Code
General
Complete name: FIFA.World.Cup.2022.Group.H.Uruguay.vs.South Korea.HDR.2160p.HDTV.DDPA5.1.H.265-BTN.mkv
Format: Matroska
Format version: Version 4
File size: 15.7 GiB
Duration: 1 h 52 min
Overall bit rate: 20.0 Mb/s
Encoded date: UTC 2022-11-24 14:59:54
Writing application: mkvmerge v72.0.0 ('Minuano (Six-eight)'wink.gif 64-bit
Writing library: libebml v1.4.4 + libmatroska v1.7.1 / Lavf58.76.100

Video
ID: 1
Format: HEVC
Format/Info: High Efficiency Video Coding
Format profile: Main 10@L5.1@Main
HDR format: SMPTE ST 2086, HDR10 compatible
Codec ID: V_MPEGH/ISO/HEVC
Duration: 1 h 52 min
Bit rate: 19.5 Mb/s
Width: 3 840 pixels
Height: 2 160 pixels
Display aspect ratio: 16:9
Frame rate mode: Constant
Frame rate: 50.000 FPS
Color space: YUV
Chroma subsampling: 4:2:0 (Type 0)
Bit depth: 10 bits
Bits/(Pixel*Frame): 0.047
Stream size: 15.3 GiB (97%)
Default: Yes
Forced: No
Color range: Limited
Color primaries: BT.2020
Transfer characteristics: HLG / BT.2020 (10-bit)
Matrix coefficients: BT.2020 non-constant
Mastering display color primaries: BT.2020
Mastering display luminance: min: 0.0000 cd/m2, max: 1000 cd/m2

Audio #1
ID: 2
Format: E-AC-3
Format/Info: Enhanced AC-3
Commercial name: Dolby Digital Plus
Codec ID: A_EAC3
Duration: 1 h 52 min
Bit rate mode: Constant
Bit rate: 128 kb/s
Channel(s): 2 channels
Channel layout: L R
Sampling rate: 48.0 kHz
Frame rate: 31.250 FPS (1536 SPF)
Compression mode: Lossy
Delay relative to video: -32 ms
Stream size: 103 MiB (1%)
Language: Polish
Service kind: Complete Main
Default: Yes
Forced: No

Audio #2
ID: 3
Format: E-AC-3 JOC
Format/Info: Enhanced AC-3 with Joint Object Coding
Commercial name: Dolby Digital Plus with Dolby Atmos
Codec ID: A_EAC3
Duration: 1 h 52 min
Bit rate mode: Constant
Bit rate: 384 kb/s
Channel(s): 6 channels
Channel layout: L R C LFE Ls Rs
Sampling rate: 48.0 kHz
Frame rate: 31.250 FPS (1536 SPF)
Compression mode: Lossy
Delay relative to video: -54 ms
Stream size: 308 MiB (2%)
Language: qaa
Service kind: Complete Main
Default: No
Forced: No
Complexity index: 10
Number of dynamic objects: 0
Bed channel count: 10 channels
Bed channel configuration: L R C LFE Ls Rs Tfl Tfr Tbl Tbr

Category International Soccer
Rating N/A
Size 15.65 GB
Show/Hide Files
1 file