Torrent’s details
Name WTA Shenzhen Open 2020.Round.2.Qiang.Wang.vs.Aliaksandra.Sasnovich | 720p | 25fps | EN
Description General
Unique ID                                : 315519081184654311864882428115800053517 (0xED5EC3BFF71AD2921BE10154E1F4570D)
Complete name                            : WTA Shenzhen Open 2020.Round.2.Qiang.Wang.vs.Aliaksandra.Sasnovich.720p.WEB.h264-PYRAMiD.mkv
Format                                   : Matroska
Format version                           : Version 4 / Version 2
File size                                : 3.03 GiB
Duration                                 : 2 h 18 min
Overall bit rate                         : 3 130 kb/s
Encoded date                             : UTC 2020-01-09 06:39:48
Writing application                      : mkvmerge v8.8.0 ('Wind at my back'wink.gif 64bit
Writing library                          : libebml v1.3.3 + libmatroska v1.4.4

Video
ID                                       : 1
Format                                   : AVC
Format/Info                              : Advanced Video Codec
Format profile                           : High@L4
Format settings, CABAC                   : Yes
Format settings, ReFrames                : 3 frames
Format settings, GOP                     : M=1, N=50
Codec ID                                 : V_MPEG4/ISO/AVC
Duration                                 : 2 h 18 min
Bit rate                                 : 3 000 kb/s
Width                                    : 1 280 pixels
Height                                   : 720 pixels
Display aspect ratio                     : 16:9
Frame rate mode                          : Constant
Frame rate                               : 25.000 FPS
Color space                              : YUV
Chroma subsampling                       : 4:2:0
Bit depth                                : 8 bits
Scan type                                : Progressive
Bits/(Pixel*Frame)                       : 0.130
Stream size                              : 2.91 GiB (96%)
Language                                 : English
Default                                  : Yes
Forced                                   : Yes

Audio
ID                                       : 2
Format                                   : AAC
Format/Info                              : Advanced Audio Codec
Format profile                           : LC
Codec ID                                 : A_AAC
Duration                                 : 2 h 18 min
Bit rate                                 : 128 kb/s
Channel(s)                               : 2 channels
Channel positions                        : Front: L R
Sampling rate                            : 48.0 kHz
Frame rate                               : 46.875 FPS (1024 spf)
Compression mode                         : Lossy
Stream size                              : 127 MiB (4%)
Language                                 : English
Default                                  : Yes
Forced                                   : Yes
Category Tennis
Rating N/A
Size 3.03 GB
Show/Hide Files
1 file