Torrent’s details
Name UK Snooker Championship 2019 Third Round Part 2 2019 12 03 720p iP WEB-DL AAC2 0 H264-BTN
Description General
Unique ID                                : 195205144814170284848388134697222548103 (0x92DB24B3DED7D98FF0FEA47D6FB42A87)
Complete name                            : UK.Snooker.Championship.2019.Third.Round.Part.2.2019.12.03.720p.iP.WEB-DL.AAC2.0.H.264-BTN.mkv
Format                                   : Matroska
Format version                           : Version 4
File size                                : 8.44 GiB
Duration                                 : 4 h 14 min
Overall bit rate                         : 4 748 kb/s
Movie name                               : Third Round - Part 2
Description                              : The third round continues at the UK Championship. Hazel Irvine introduces live coverage.
Encoded date                             : UTC 2019-12-03 19:11:29
Writing application                      : mkvmerge v30.1.0 ('Forever And More'wink.gif 64-bit
Writing library                          : libebml v1.3.6 + libmatroska v1.4.9 / Lavf58.20.100
Copyright                                : 2019 British Broadcasting Corporation, all rights reserved
Comment                                  : The third round continues at the UK Championship. Hazel Irvine introduces live coverage.
ALBUM                                    : UK Snooker Championship: 2019
ALBUM_ARTIST                             : BBC TV
ARTIST                                   : BBC Two
COMPOSER                                 : BBC iPlayer
DATE                                     : 2019-12-03T13:00:00Z
DISC                                     : 2019
EPISODE_ID                               : 201912031300
GENRE                                    : Sport
GROUPING                                 : Sport,Snooker
HD_VIDEO                                 : 1
LYRICS                                   : The third round continues at the UK Championship, the first of the season's Triple Crown events. Hazel Irvine introduces live coverage from York's Barbican Centre. Matches are the best of 11 frames. /  / PLAY: https://www.bbc.co.uk/iplayer/episode/m000by33 /  / INFO: https://www.bbc.co.uk/programmes/m000by33
MEDIA_TYPE                               : 10
NETWORK                                  : BBC Two
SEASON_NUMBER                            : 227
SHOW                                     : UK Snooker Championship: 2019
SYNOPSIS                                 : The third round continues at the UK Championship, the first of the season's Triple Crown events. Hazel Irvine introduces live coverage from York's Barbican Centre. Matches are the best of 11 frames. /  / PLAY: https://www.bbc.co.uk/iplayer/episode/m000by33 /  / INFO: https://www.bbc.co.uk/programmes/m000by33

Video
ID                                       : 1
Format                                   : AVC
Format/Info                              : Advanced Video Codec
Format profile                           : High@L3.2
Format settings                          : CABAC / 2 Ref Frames
Format settings, CABAC                   : Yes
Format settings, Reference frames        : 2 frames
Codec ID                                 : V_MPEG4/ISO/AVC
Duration                                 : 4 h 14 min
Bit rate                                 : 4 619 kb/s
Width                                    : 1 280 pixels
Height                                   : 720 pixels
Display aspect ratio                     : 16:9
Frame rate mode                          : Constant
Frame rate                               : 50.000 FPS
Standard                                 : Component
Color space                              : YUV
Chroma subsampling                       : 4:2:0
Bit depth                                : 8 bits
Scan type                                : Progressive
Bits/(Pixel*Frame)                       : 0.100
Stream size                              : 8.21 GiB (97%)
Default                                  : Yes
Forced                                   : No
Color range                              : Limited
Color primaries                          : BT.709
Transfer characteristics                 : BT.709
Matrix coefficients                      : BT.709

Audio
ID                                       : 2
Format                                   : AAC LC
Format/Info                              : Advanced Audio Codec Low Complexity
Codec ID                                 : A_AAC-2
Duration                                 : 4 h 14 min
Bit rate                                 : 125 kb/s
Channel(s)                               : 2 channels
Channel layout                           : L R
Sampling rate                            : 48.0 kHz
Frame rate                               : 46.875 FPS (1024 SPF)
Compression mode                         : Lossy
Delay relative to video                  : 20 ms
Stream size                              : 228 MiB (3%)
Language                                 : English
Default                                  : Yes
Forced                                   : No

Text
ID                                       : 3
Format                                   : UTF-8
Codec ID                                 : S_TEXT/UTF8
Codec ID/Info                            : UTF-8 Plain Text
Duration                                 : 4 h 13 min
Bit rate                                 : 124 b/s
Count of elements                        : 2011
Stream size                              : 230 KiB (0%)
Default                                  : Yes
Forced                                   : No

Category Snooker/Pool
Rating N/A
Size 8.44 GB
Show/Hide Files
1 file





[ Queries: 24|0 ] - [ Script Execution: 0.0089 sec. ] - [ GZIP: disabled ]