Torrent’s details
Name NBA Playoffs 2010 EC1R Bucks@Hawks Game 1 720p Eng
Image
Description Video
ID                          : 33 (0x21)
Menu ID                     : 1 (0x1)
Format                      : MPEG Video
Format version              : Version 2
Format profile              : Main@High
Format settings             : CustomMatrix / BVOP
Format settings, BVOP       : Yes
Format settings, Matrix     : Custom
Format settings, GOP        : Variable
Codec ID                    : 2
Duration                    : 48 min 5 s
Bit rate mode               : Variable
Bit rate                    : 17.5 Mb/s
Maximum bit rate            : 80.0 Mb/s
Width                       : 1 280 pixels
Height                      : 720 pixels
Display aspect ratio        : 16:9
Frame rate                  : 59.940 (60000/1001) FPS
Standard                    : Component
Color space                 : YUV
Chroma subsampling          : 4:2:0
Bit depth                   : 8 bits
Scan type                   : Progressive
Compression mode            : Lossy
Bits/(Pixel*Frame)          : 0.316
Time code of first frame    : 00:00:00;00
Time code source            : Group of pictures header
GOP, Open/Closed            : Open
GOP, Open/Closed of first f : Closed
Stream size                 : 5.87 GiB (93%)
Color primaries             : BT.709
Transfer characteristics    : BT.709
Matrix coefficients         : BT.709

Audio
ID                          : 36 (0x24)
Menu ID                     : 1 (0x1)
Format                      : AC-3
Format/Info                 : Audio Coding 3
Codec ID                    : 129
Duration                    : 48 min 5 s
Bit rate mode               : Constant
Bit rate                    : 384 kb/s
Channel(s)                  : 6 channels
Channel positions           : Front: L C R, Side: L R, LFE
Sampling rate               : 48.0 kHz
Frame rate                  : 31.250 FPS (1536 SPF)
Bit depth                   : 16 bits
Compression mode            : Lossy
Stream size                 : 132 MiB (2%)
Service kind                : Complete Main
Category NBA/WNBA
Rating N/A
Size 13.53 GB
Show/Hide Files
2 files