Torrent’s details
Name CONCACAF Gold Cup Group C 2021.07.20 Costa Rica vs. Jamaica unedited ENG 720p60 H.264
Description CONCACAF Gold Cup Group C
Costa Rica vs. Jamaica

Exploria Stadium, Orlando, FL, USA

This is the unedited broadcast from FS1, so there are commercials.

Media info
General
Complete name                            : 2021-07-20 Costa Rica vs. Jamaica unedited.mp4
Format                                   : MPEG-4
Format profile                           : Base Media
Codec ID                                 : isom (isom/iso2/avc1/mp41)
File size                                : 5.92 GiB
Duration                                 : 2 h 7 min
Overall bit rate mode                    : Constant
Overall bit rate                         : 6 671 kb/s
Movie name                               : CONCACAF Gold Cup
Law rating                               : None
Writing application                      : Lavf58.29.100

Video
ID                                       : 1
Format                                   : AVC
Format/Info                              : Advanced Video Codec
Format profile                           : High@L3.2
Format settings                          : CABAC / 2 Ref Frames
Format settings, CABAC                   : Yes
Format settings, Reference frames        : 2 frames
Codec ID                                 : avc1
Codec ID/Info                            : Advanced Video Coding
Duration                                 : 2 h 7 min
Bit rate mode                            : Constant
Bit rate                                 : 6 464 kb/s
Width                                    : 1 280 pixels
Height                                   : 720 pixels
Display aspect ratio                     : 16:9
Frame rate mode                          : Variable
Frame rate                               : 59.940 (60000/1001) FPS
Minimum frame rate                       : 2.235 FPS
Maximum frame rate                       : 90 000.000 FPS
Color space                              : YUV
Chroma subsampling                       : 4:2:0
Bit depth                                : 8 bits
Scan type                                : Progressive
Bits/(Pixel*Frame)                       : 0.117
Stream size                              : 5.74 GiB (97%)
Color range                              : Limited
Color primaries                          : BT.709
Transfer characteristics                 : BT.709
Matrix coefficients                      : BT.709
Codec configuration box                  : avcC

Audio
ID                                       : 2
Format                                   : AAC LC
Format/Info                              : Advanced Audio Codec Low Complexity
Codec ID                                 : mp4a-40-2
Duration                                 : 2 h 7 min
Bit rate mode                            : Constant
Bit rate                                 : 192 kb/s
Channel(s)                               : 2 channels
Channel layout                           : L R
Sampling rate                            : 48.0 kHz
Frame rate                               : 46.875 FPS (1024 SPF)
Compression mode                         : Lossy
Stream size                              : 172 MiB (3%)
Default                                  : Yes
Alternate group                          : 1
Category International Soccer
Rating N/A
Size 5.92 GB
Show/Hide Files
1 file