Torrent’s details
Name La Liga 2018 10 21 Barcelona vs Sevilla 1080I25fps
Description General
Filename:    La Liga 2018 10 21 Barcelona vs Sevilla 1080I25fps.ts
Format                         : MPEG-TS
File size                      : 17.5 GiB
Duration                       : 3 h 3 min
Overall bit rate mode          : Variable
Overall bit rate               : 13.7 Mb/s

Video
ID                             : 3851 (0xF0B)
Menu ID                        : 43 (0x2B)
Format                         : AVC
Format/Info                    : Advanced Video Codec
Format profile                 : High 4:2:2@L4
Format settings                : CABAC / 3 Ref Frames
Format settings, CABAC         : Yes
Format settings, Reference fra : 3 frames
Format settings, GOP           : M=3, N=24
Codec ID                       : 27
Duration                       : 3 h 3 min
Bit rate mode                  : Constant
Bit rate                       : 10.1 Mb/s
Width                          : 1 920 pixels
Height                         : 1 080 pixels
Display aspect ratio           : 16:9
Frame rate                     : 25.000 FPS
Color space                    : YUV
Chroma subsampling             : 4:2:2
Bit depth                      : 8 bits
Scan type                      : Interlaced
Scan type, store method        : Separated fields
Scan order                     : Top Field First
Bits/(Pixel*Frame)             : 0.195
Stream size                    : 12.7 GiB (72%)
Color range                    : Limited
Color primaries                : BT.709
Transfer characteristics       : BT.709
Matrix coefficients            : BT.709

Audio #1
ID                             : 3852 (0xF0C)
Menu ID                        : 43 (0x2B)
Format                         : MPEG Audio
Format version                 : Version 1
Format profile                 : Layer 2
Codec ID                       : 3
Duration                       : 3 h 3 min
Bit rate mode                  : Constant
Bit rate                       : 256 kb/s
Channel(s)                     : 2 channels
Sampling rate                  : 48.0 kHz
Frame rate                     : 41.667 FPS (1152 SPF)
Compression mode               : Lossy
Delay relative to video        : -16 ms
Stream size                    : 335 MiB (2%)

Audio #2
ID                             : 3853 (0xF0D)
Menu ID                        : 43 (0x2B)
Format                         : MPEG Audio
Format version                 : Version 1
Format profile                 : Layer 2
Codec ID                       : 3
Duration                       : 3 h 3 min
Bit rate mode                  : Constant
Bit rate                       : 256 kb/s
Channel(s)                     : 2 channels
Sampling rate                  : 48.0 kHz
Frame rate                     : 41.667 FPS (1152 SPF)
Compression mode               : Lossy
Delay relative to video        : -16 ms
Stream size                    : 335 MiB (2%)

Audio #3
ID                             : 3854 (0xF0E)
Menu ID                        : 43 (0x2B)
Format                         : MPEG Audio
Format version                 : Version 1
Format profile                 : Layer 2
Codec ID                       : 3
Duration                       : 3 h 3 min
Bit rate mode                  : Constant
Bit rate                       : 256 kb/s
Channel(s)                     : 2 channels
Sampling rate                  : 48.0 kHz
Frame rate                     : 41.667 FPS (1152 SPF)
Compression mode               : Lossy
Delay relative to video        : -16 ms
Stream size                    : 335 MiB (2%)

Audio #4
ID                             : 3855 (0xF0F)-1
Menu ID                        : 43 (0x2B)
Format                         : Dolby E
Format settings                : Little
Muxing mode                    : SMPTE ST 302 / SMPTE ST 337
Codec ID                       : 6
Duration                       : 3 h 3 min
Bit rate mode                  : Constant
Channel(s)                     : 6 channels
Channel layout                 : L C Ls X R LFE Rs X
Sampling rate                  : 48.0 kHz
Frame rate                     : 25.000 FPS (1920 SPF)
Bit depth                      : 20 bits

Audio #5
ID                             : 3855 (0xF0F)-2
Menu ID                        : 43 (0x2B)
Format                         : Dolby E
Format settings                : Little
Muxing mode                    : SMPTE ST 302 / SMPTE ST 337
Codec ID                       : 6
Duration                       : 3 h 3 min
Bit rate mode                  : Constant
Channel(s)                     : 2 channels
Channel layout                 : X X X L X X X R
Sampling rate                  : 48.0 kHz
Frame rate                     : 25.000 FPS (1920 SPF)
Bit depth                      : 20 bits

Category La Liga
Rating N/A
Size 17.54 GB
Show/Hide Files
1 file