Torrent’s details
Name UFC.274.Oliveira.vs.Gaethje.720p.Prelims.WEB-DL.AAC2.0.H.264-Fight-BB
Description Source: Fight Pass

General
Complete name                            : UFC.274.Prelims.720p.WEB-DL.H264.Fight-BB.mp4
Format                                   : MPEG-4
Format profile                           : Base Media
Codec ID                                 : isom (isom/iso2/avc1/mp41)
File size                                : 3.40 GiB
Duration                                 : 2 h 32 min
Overall bit rate mode                    : Variable
Overall bit rate                         : 3 194 kb/s
Writing application                      : Lavf58.76.100

Video
ID                                       : 1
Format                                   : AVC
Format/Info                              : Advanced Video Codec
Format profile                           : High@L4.1
Format settings                          : CABAC / 4 Ref Frames
Format settings, CABAC                   : Yes
Format settings, Reference frames        : 4 frames
Format settings, GOP                     : M=1, N=60
Codec ID                                 : avc1
Codec ID/Info                            : Advanced Video Coding
Duration                                 : 2 h 32 min
Bit rate mode                            : Variable
Bit rate                                 : 3 054 kb/s
Maximum bit rate                         : 3 159 kb/s
Width                                    : 1 280 pixels
Height                                   : 720 pixels
Display aspect ratio                     : 16:9
Frame rate mode                          : Variable
Frame rate                               : 30.000 FPS
Minimum frame rate                       : 29.412 FPS
Maximum frame rate                       : 30.303 FPS
Standard                                 : NTSC
Color space                              : YUV
Chroma subsampling                       : 4:2:0
Bit depth                                : 8 bits
Scan type                                : Progressive
Bits/(Pixel*Frame)                       : 0.110
Stream size                              : 3.25 GiB (96%)
Color range                              : Limited
Color primaries                          : BT.709
Transfer characteristics                 : BT.709
Matrix coefficients                      : BT.709
Codec configuration box                  : avcC

Audio
ID                                       : 2
Format                                   : AAC LC
Format/Info                              : Advanced Audio Codec Low Complexity
Codec ID                                 : mp4a-40-2
Duration                                 : 2 h 32 min
Bit rate mode                            : Variable
Bit rate                                 : 132 kb/s
Maximum bit rate                         : 134 kb/s / 134 kb/s
Channel(s)                               : 2 channels
Channel layout                           : L R
Sampling rate                            : 48.0 kHz
Frame rate                               : 46.875 FPS (1024 SPF)
Compression mode                         : Lossy
Stream size                              : 144 MiB (4%)
Default                                  : Yes
Alternate group                          : 1


   
Category MMA
Rating N/A
Size 3.40 GB
Show/Hide Files
1 file