Torrent’s details
Name Brasileiro.Serie B.Week 01 - Vasco da Gama vs Operario.1080px264
Image
Description Format                         : Matroska
Format version                 : Version 4 / Version 2
File size                      : 3.00 GiB
Duration                       : 1 h 42 min
Overall bit rate               : 4 212 kb/s
Encoded date                   : UTC 2021-05-29 16:29:36
Writing application            : mkvmerge v25.0.0 ('Prog Noir'wink.gif 64-bit
Writing library                : libebml v1.3.6 + libmatroska v1.4.9

Video
ID                             : 1
Format                         : AVC
Format/Info                    : Advanced Video Codec
Format profile                 : Main@L4.2
Format settings, CABAC         : Yes
Format settings, RefFrames     : 4 frames
Format settings, GOP           : M=1, N=50
Codec ID                       : V_MPEG4/ISO/AVC
Duration                       : 1 h 42 min
Bit rate                       : 4 079 kb/s
Width                          : 1 920 pixels
Height                         : 1 080 pixels
Display aspect ratio           : 16:9
Frame rate mode                : Constant
Frame rate                     : 50.000 FPS
Color space                    : YUV
Chroma subsampling             : 4:2:0
Bit depth                      : 8 bits
Scan type                      : Progressive
Bits/(Pixel*Frame)             : 0.039
Stream size                    : 2.91 GiB (97%)
Default                        : Yes
Forced                         : No

Audio
ID                             : 2
Format                         : AAC
Format/Info                    : Advanced Audio Codec
Format profile                 : LC
Codec ID                       : A_AAC
Duration                       : 1 h 42 min
Bit rate                       : 132 kb/s
Channel(s)                     : 2 channels
Channel positions              : Front: L R
Sampling rate                  : 22.05 kHz
Frame rate                     : 21.533 FPS (1024 SPF)
Compression mode               : Lossy
Delay relative to video        : -46 ms
Stream size                    : 94.7 MiB (3%)
Default                        : Yes
Forced                         : No


Category International Soccer
Rating N/A
Size 3.00 GB
Show/Hide Files
1 file