Torrent’s details
Name 2018 FIFA World Cup Group A.1 tour.Egypt@Uruguay 720p mkv
Description General
Unique ID                      : 175751848697260938017185708467078553581 (0x8438932752475777D36BCB32EBE3DFED)
Complete name                  : F:KG2. Group A. 1 tour. Egypt - Uruguay HDTVRip 720p rgfootball.net.mkv
Format                         : Matroska
Format version                 : Version 2
File size                      : 3.51 GiB
Duration                       : 1 h 54 min
Overall bit rate               : 4 401 kb/s
Writing application            : Lavf54.63.104
Writing library                : Lavf54.63.104

Video
ID                             : 1
Format                         : AVC
Format/Info                    : Advanced Video Codec
Format profile                 : High@L4
Format settings                : CABAC / 8 Ref Frames
Format settings, CABAC         : Yes
Format settings, Reference fra : 8 frames
Codec ID                       : V_MPEG4/ISO/AVC
Duration                       : 1 h 54 min
Bit rate                       : 4 058 kb/s
Width                          : 1 280 pixels
Height                         : 720 pixels
Display aspect ratio           : 16:9
Frame rate mode                : Constant
Frame rate                     : 50.000 FPS
Color space                    : YUV
Chroma subsampling             : 4:2:0
Bit depth                      : 8 bits
Scan type                      : Progressive
Bits/(Pixel*Frame)             : 0.088
Stream size                    : 3.24 GiB (92%)
Default                        : No
Forced                         : No

Audio #1
ID                             : 2
Format                         : AC-3
Format/Info                    : Audio Coding 3
Commercial name                : Dolby Digital
Codec ID                       : A_AC3
Duration                       : 1 h 54 min
Bit rate mode                  : Constant
Bit rate                       : 128 kb/s
Channel(s)                     : 2 channels
Channel layout                 : L R
Sampling rate                  : 48.0 kHz
Frame rate                     : 31.250 FPS (1536 SPF)
Bit depth                      : 16 bits
Compression mode               : Lossy
Stream size                    : 105 MiB (3%)
Language                       : Russian
Service kind                   : Complete Main
Default                        : Yes
Forced                         : No

Audio #2
ID                             : 3
Format                         : AC-3
Format/Info                    : Audio Coding 3
Commercial name                : Dolby Digital
Codec ID                       : A_AC3
Duration                       : 1 h 54 min
Bit rate mode                  : Constant
Bit rate                       : 128 kb/s
Channel(s)                     : 2 channels
Channel layout                 : L R
Sampling rate                  : 48.0 kHz
Frame rate                     : 31.250 FPS (1536 SPF)
Bit depth                      : 16 bits
Compression mode               : Lossy
Stream size                    : 105 MiB (3%)
Service kind                   : Complete Main
Default                        : No
Forced                         : No

Category International Soccer
Rating N/A
Size 3.51 GB
Show/Hide Files
1 file