Torrent’s details
Name RPL 2021-2022. Matchday 03. Dinamo Moscow - CSKA Moscow HDTVRip 720p RUS
Description RPL 2021-2022. Matchday 03. Dinamo Moscow - CSKA Moscow HDTVRip 720p


Help the uploader for his effort Please Click Here Thanks.



[u]
Visit my blog
[u]

General
Unique ID                                : 134100884420649766669775002321469045494 (0x64E2E411333FD6F942AF0F94B357FAF6)
Complete name                            : G:Fotbaly lig v evropÄ›RPL 2021-2022. Matchday 03. Dinamo Moscow - CSKA Moscow HDTVRip 720p.mkv
Format                                   : Matroska
Format version                           : Version 2
File size                                : 4.03 GiB
Duration                                 : 2h 14mn
Overall bit rate                         : 4 280 Kbps
Writing application                      : Lavf54.63.104
Writing library                          : Lavf54.63.104

Video
ID                                       : 1
Format                                   : AVC
Format/Info                              : Advanced Video Codec
Format profile                           : High@L3.2
Format settings, CABAC                   : Yes
Format settings, ReFrames                : 4 frames
Codec ID                                 : V_MPEG4/ISO/AVC
Duration                                 : 2h 14mn
Bit rate                                 : 3 938 Kbps
Width                                    : 1 280 pixels
Height                                   : 720 pixels
Display aspect ratio                     : 16:9
Frame rate mode                          : Constant
Frame rate                               : 50.000 fps
Color space                              : YUV
Chroma subsampling                       : 4:2:0
Bit depth                                : 8 bits
Scan type                                : Progressive
Bits/(Pixel*Frame)                       : 0.085
Stream size                              : 3.70 GiB (92%)
Default                                  : No
Forced                                   : No

Audio #1
ID                                       : 2
Format                                   : AC-3
Format/Info                              : Audio Coding 3
Mode extension                           : CM (complete main)
Format settings, Endianness              : Big
Codec ID                                 : A_AC3
Duration                                 : 2h 14mn
Bit rate mode                            : Constant
Bit rate                                 : 128 Kbps
Channel(s)                               : 2 channels
Channel positions                        : Front: L R
Sampling rate                            : 48.0 KHz
Compression mode                         : Lossy
Stream size                              : 123 MiB (3%)
Language                                 : Russian
Default                                  : Yes
Forced                                   : No

Audio #2
ID                                       : 3
Format                                   : AC-3
Format/Info                              : Audio Coding 3
Mode extension                           : CM (complete main)
Format settings, Endianness              : Big
Codec ID                                 : A_AC3
Duration                                 : 2h 14mn
Bit rate mode                            : Constant
Bit rate                                 : 128 Kbps
Channel(s)                               : 2 channels
Channel positions                        : Front: L R
Sampling rate                            : 48.0 KHz
Compression mode                         : Lossy
Stream size                              : 123 MiB (3%)
Default                                  : No
Forced                                   : No


Category European Soccer
Rating N/A
Size 4.03 GB
Show/Hide Files
1 file