Torrent’s details
Name NBA.1998.03.12.Bulls.vs.Mavericks.720p.30fps.WEB-DL.x264-shock
Image
Description Information

Event: NBA.1998.03.12.Bulls.vs.Mavericks

https://www.basketball-reference.com/boxscores/199803120DAL.html

Language: English
Ripper: shock a.k.a anjaklama
Video: MPEG4 Video (H264) 1280x720 29.97fps 5873kbps
Audio: AAC 48000Hz stereo 128kbp



Format  : MPEG-4
Format profile                           : Base Media
Codec ID                                 : isom (isom/iso2/avc1/mp41)
File size                                : 4.53 GiB
Duration                                 : 1 h 47 min
Overall bit rate mode                    : Constant
Overall bit rate                         : 6 010 kb/s
Writing application                      : Lavf59.33.100

Video
ID                                       : 1
Format                                   : AVC
Format/Info                              : Advanced Video Codec
Format profile                           : High@L3.1
Format settings                          : CABAC / 4 Ref Frames
Format settings, CABAC                   : Yes
Format settings, Reference frames        : 4 frames
Codec ID                                 : avc1
Codec ID/Info                            : Advanced Video Coding
Duration                                 : 1 h 47 min
Bit rate mode                            : Constant
Bit rate                                 : 5 874 kb/s
Width                                    : 1 280 pixels
Height                                   : 720 pixels
Display aspect ratio                     : 16:9
Frame rate mode                          : Constant
Frame rate                               : 29.970 (30000/1001) FPS
Color space                              : YUV
Chroma subsampling                       : 4:2:0
Bit depth                                : 8 bits
Scan type                                : Progressive
Bits/(Pixel*Frame)                       : 0.213
Stream size                              : 4.43 GiB (98%)
Color range                              : Limited
Color primaries                          : BT.709
Transfer characteristics                 : BT.709
Matrix coefficients                      : BT.709
Codec configuration box                  : avcC

Audio
ID                                       : 2
Format                                   : AAC LC SBR
Format/Info                              : Advanced Audio Codec Low Complexity with Spectral Band Replication
Commercial name                          : HE-AAC
Format settings                          : Explicit
Codec ID                                 : mp4a-40-2
Duration                                 : 1 h 47 min
Bit rate mode                            : Constant
Bit rate                                 : 128 kb/s
Channel(s)                               : 2 channels
Channel layout                           : L R
Sampling rate                            : 48.0 kHz
Frame rate                               : 23.438 FPS (2048 SPF)
Compression mode                         : Lossy
Stream size                              : 98.8 MiB (2%)
Language                                 : English
Category NBA/WNBA
Rating N/A
Size 4.53 GB
Show/Hide Files
1 file