Torrent’s details
Name UFC on ESPN 12 2020/06/27 Poirier vs Hooker Main Card 720p HDTV 50fps ENG | VERUM / SAT FEED
Image
Description UFC Satellite Feed @ 50 FPS
_______________

UFC on ESPN 12 - Poirier vs. Hooker

Date: Sat. June 27th, 2020
Location: UFC APEX in Las Vegas, Nevada, U.S.A.
Broadcast: ESPN+

UFC on ESPN 12 Main Event:
155 lbs.: Dustin Poirier vs. Dan Hooker

UFC on ESPN 12 Main Card:
170 lbs.: Mickey Gall vs. Mike Perry
265 lbs.: Maurice Greene vs. Gian Villante
185 lbs.: Brendan Allen vs. Kyle Daukaus
170 lbs.: Takashi Soto vs. Jason Witt
150 lbs.: Sean Woodson vs. Julian Erosa
______________

General
Complete name : UFC.on.ESPN.12.720p.HDTV.x264-VERUM.mkv
Format : Matroska
Format version : Version 4
File size : 5.56 GiB
Duration : 3 h 42 min
Overall bit rate : 3 575 kb/s
Writing application : x264.exe
Writing library : MS-DOS 6.22
Tool : Custom Encoder

Video
ID : 1
Format : AVC
Format/Info : Advanced Video Codec
Format profile : High@L4.1
Format settings : CABAC / 5 Ref Frames
Format settings, CABAC : Yes
Format settings, Reference frames : 5 frames
Codec ID : V_MPEG4/ISO/AVC
Duration : 3 h 42 min
Bit rate : 3 120 kb/s
Width : 1 280 pixels
Height : 720 pixels
Display aspect ratio : 16:9
Frame rate mode : Constant
Frame rate : 100/2 FPS
Color space : YUV
Chroma subsampling : 4:2:0
Bit depth : 8 bits
Scan type : Progressive
Bits/(Pixel*Frame) : 0.068
Stream size : 4.85 GiB (87%)
Writing library : x264 core 160 r3009 4c9b076
Encoding settings : cabac=1 / ref=5 / deblock=1:0:0 /
analyse=0x3:0x113 / me=hex / subme=8 / psy=1 / psy_rd=1.00:0.00 /
mixed_ref=1 / me_range=16 / chroma_me=1 / trellis=2 / 8x8dct=1 /
cqm=0 / deadzone=21,11 / fast_pskip=1 / chroma_qp_offset=-2 /
threads=22 / lookahead_threads=3 / sliced_threads=0 / nr=0 /
decimate=1 / interlaced=0 / bluray_compat=0 / constrained_intra=0 /
bframes=3 / b_pyramid=2 / b_adapt=1 / b_bias=0 / direct=3 /
weightb=1 / open_gop=0 / weightp=2 / keyint=250 / keyint_min=25 /
scenecut=40 / intra_refresh=0 / rc_lookahead=50 / rc=crf / mbtree=1 /
crf=22.0 / qcomp=0.60 / qpmin=0 / qpmax=69 / qpstep=4 /
ip_ratio=1.40 / aq=1:1.00
Language : English
Default : Yes
Forced : No
Color range : Limited
Matrix coefficients : BT.709

Audio
ID : 2
Format : MPEG Audio
Format version : Version 1
Format profile : Layer 2
Format settings : Dual mono
Codec ID : A_MPEG/L2
Codec ID/Hint : MP2
Duration : 3 h 42 min
Bit rate mode : Constant
Bit rate : 384 kb/s
Channel(s) : 2 channels
Sampling rate : 48.0 kHz
Compression mode : Lossy
Stream size : 612 MiB (11%)
Language : English
Default : Yes
Forced : No

Respect to VERUM!  cool2.gifdrunk.gifsleep.gif
Category MMA
Rating N/A
Size 5.56 GB
Show/Hide Files
1 file