Torrent’s details
Name NBA.RS.11.04.2023.Nuggets@Bulls.2160p25fps.CCTV5
Image
Description Language: Chinese
Broadcast:China National Sport TV (Altitude Sports source)

General
Complete name               :NBA.RS.11.04.2023.Nuggets@Bulls.2160p25fps.CCTV5.mp4
Format                         : MPEG-4
Format profile                 : Base Media
Codec ID                       : isom (isom/iso2/avc1/mp41)
File size                      : 16.4 GiB
Duration                       : 2 h 0 min
Overall bit rate               : 19.4 Mb/s
Frame rate                     : 25.000 FPS
Writing application            : Lavf59.16.100

Video
ID                             : 1
Format                         : AVC
Format/Info                    : Advanced Video Codec
Format profile                 : High@L5.1
Format settings                : CABAC / 2 Ref Frames
Format settings, CABAC         : Yes
Format settings, Reference fra : 2 frames
Codec ID                       : avc1
Codec ID/Info                  : Advanced Video Coding
Duration                       : 2 h 0 min
Source duration                : 2 h 0 min
Bit rate                       : 19.3 Mb/s
Width                          : 3 840 pixels
Height                         : 2 160 pixels
Display aspect ratio           : 16:9
Frame rate mode                : Variable
Frame rate                     : 25.000 FPS
Minimum frame rate             : 0.581 FPS
Maximum frame rate             : 25.000 FPS
Color space                    : YUV
Chroma subsampling             : 4:2:0
Bit depth                      : 8 bits
Scan type                      : Progressive
Bits/(Pixel*Frame)             : 0.093
Stream size                    : 16.3 GiB (99%)
Source stream size             : 16.3 GiB (99%)
Writing library                : 2.7.0.862
Codec configuration box        : avcC

Audio
ID                             : 2
Format                         : AAC LC
Format/Info                    : Advanced Audio Codec Low Complexity
Codec ID                       : mp4a-40-2
Duration                       : 2 h 0 min
Bit rate mode                  : Constant
Bit rate                       : 128 kb/s
Channel(s)                     : 2 channels
Channel layout                 : L R
Sampling rate                  : 44.1 kHz
Frame rate                     : 43.066 FPS (1024 SPF)
Compression mode               : Lossy
Stream size                    : 110 MiB (1%)
Default                        : Yes
Alternate group                : 1
Category NBA
Rating N/A
Size 16.37 GB
Show/Hide Files
1 file