Torrent’s details
Name Peyton's Places S01 720p ESPN WEB-DL AAC2.0 H.264-KiMCHi
Image
Description
Quote:
This release is sourced from ESPN and is not transcoded, just remuxed from the direct stream.



General
Unique ID                                : 2695005312780133446774847974194735860 (0x2070A054A33227D86091F056626EAF4)
Complete name                            : Peytons.Places.S01E01.The.Hupmobile.720p.ESPN.WEB-DL.AAC2.0.H.264-KiMCHi.mkv
Format                                   : Matroska
Format version                           : Version 4
File size                                : 1 019 MiB
Duration                                 : 20 min 33 s
Overall bit rate mode                    : Variable
Overall bit rate                         : 6 932 kb/s
Movie name                               : Peyton's Places - The Hupmobile [S01E01] ESPN 720p WEB-DL - KiMCHi
Encoded date                             : UTC 2019-07-30 02:34:16
Writing application                      : mkvmerge v32.0.0 ('Astral Progressions'wink.gif 64-bit
Writing library                          : libebml v1.3.7 + libmatroska v1.5.0

Video
ID                                       : 1
Format                                   : AVC
Format/Info                              : Advanced Video Codec
Format profile                           : High@L4
Format settings                          : CABAC / 3 Ref Frames
Format settings, CABAC                   : Yes
Format settings, Reference frames        : 3 frames
Codec ID                                 : V_MPEG4/ISO/AVC
Duration                                 : 20 min 33 s
Bit rate mode                            : Variable
Bit rate                                 : 6 803 kb/s
Maximum bit rate                         : 8 590 kb/s
Width                                    : 1 280 pixels
Height                                   : 720 pixels
Display aspect ratio                     : 16:9
Frame rate mode                          : Constant
Frame rate                               : 59.940 (60000/1001) FPS
Color space                              : YUV
Chroma subsampling                       : 4:2:0
Bit depth                                : 8 bits
Scan type                                : Progressive
Bits/(Pixel*Frame)                       : 0.123
Stream size                              : 1 000 MiB (98%)
Default                                  : Yes
Forced                                   : No

Audio
ID                                       : 2
Format                                   : AAC LC
Format/Info                              : Advanced Audio Codec Low Complexity
Codec ID                                 : A_AAC-2
Duration                                 : 20 min 33 s
Bit rate                                 : 125 kb/s
Channel(s)                               : 2 channels
Channel layout                           : L R
Sampling rate                            : 48.0 kHz
Frame rate                               : 46.875 FPS (1024 SPF)
Compression mode                         : Lossy
Delay relative to video                  : -12 ms
Stream size                              : 18.4 MiB (2%)
Language                                 : English
Default                                  : Yes
Forced                                   : No
Category Documentary
Rating N/A
Size 34.76 GB
Show/Hide Files
30 files