Torrent’s details
Name NBA Finals 2011 Mavericks vs Heat All Six Games Collection ABC HDTV 720pEN60fps
Image
Description






Quote:
General
ID : 1 (0×1)
Complete name : N:NBA Video2010-2011PlayoffsFinals-Heat.vs.MavericksNBA-2011.06.02-Finals-G2-Mavericks@Heat-ABC60.ts
Format : MPEG-TS
File size : 12.4 GiB
Duration : 2 h 29 min
Overall bit rate mode : Variable
Overall bit rate : 11.9 Mb/s
Movie name : JIMMY KIMMEL LIVE: GAME NIGHT
Law rating : None

Video
ID : 1984 (0×7C0)
Menu ID : 1 (0×1)
Format : MPEG Video
Format version : Version 2
Format profile : Main@High
Format settings : CustomMatrix / BVOP
Format settings BVOP : Yes
Format settings Matrix : Custom
Format settings GOP : Variable
Codec ID : 2
Duration : 2 h 29 min
Bit rate mode : Variable
Bit rate : 10.9 Mb/s
Maximum bit rate : 38.6 Mb/s
Width : 1 280 pixels
Height : 720 pixels
Display aspect ratio : 16:9
frame rate : 59.940 (60000/1001) FPS
Color space : YUV
Chroma subsampling : 4:2:0
Bit depth : 8 bits
Scan type : Progressive
Compression mode : Lossy
Bits/(Pixel*frame) : 0.198
Time code of first frame : 00:00:00;00
Time code source : Group of pictures header
Stream size : 11.4 GiB (92%)

Audio
ID : 1985 (0×7C1)
Menu ID : 1 (0×1)
Format : AC-3
Format/Info : Audio Coding 3
Commercial name : Dolby Digital
Codec ID : 129
Duration : 2 h 29 min
Bit rate mode : Constant
Bit rate : 384 kb/s
Channel(s) : 2 channels
Channel layout : L R
Sampling rate : 48.0 kHz
frame rate : 31.250 FPS (1536 SPF)
Bit depth : 16 bits
Compression mode : Lossy
Stream size : 410 MiB (3%)
Language : English
Service kind : Complete Main

Text #1
ID : 1984 (0×7C0)-CC1
Menu ID : 1 (0×1)
Format : EIA-608
Muxing mode : A/53 / DTVCC Transport
Muxing mode more info : Muxed in Video #1
Duration : 2 h 29 min
Bit rate mode : Constant
Stream size : 0.00 Byte (0%)
CaptionServiceName : CC1

Text #2
ID : 1984 (0×7C0)-CC3
Menu ID : 1 (0×1)
Format : EIA-608
Muxing mode : A/53 / DTVCC Transport
Muxing mode more info : Muxed in Video #1
Duration : 2 h 29 min
Bit rate mode : Constant
Stream size : 0.00 Byte (0%)
CaptionServiceName : CC3

Text #3
ID : 1984 (0×7C0)-1
Menu ID : 1 (0×1)
Format : EIA-708
Muxing mode : A/53 / DTVCC Transport
Muxing mode more info : Muxed in Video #1
Duration : 2 h 29 min
Bit rate mode : Constant
Stream size : 0.00 Byte (0%)

Text #4
ID : 1984 (0×7C0)-2
Menu ID : 1 (0×1)
Format : EIA-708
Muxing mode : A/53 / DTVCC Transport
Muxing mode more info : Muxed in Video #1
Duration : 2 h 29 min
Bit rate mode : Constant
Stream size : 0.00 Byte (0%)

Category NBA/WNBA
Rating N/A
Size 76.57 GB
Show/Hide Files
6 files