Torrent’s details
Name Copa Libertadores Cerro Porteño vs. Palmeiras 9 09 pol 25 fps
Description General
ID                             : 11600 (0x2D50)
Complete name                  : D:movies??????Copa Libertadores Cerro Porteño vs. Palmeiras 9 09 Deu 25  fps.ts
Format                         : MPEG-TS
File size                      : 4.06 GiB
Duration                       : 1h 40mn
Overall bit rate mode          : Variable
Overall bit rate               : 5 798 Kbps

Video
ID                             : 162 (0xA2)
Menu ID                        : 3503 (0xDAF)
Format                         : AVC
Format/Info                    : Advanced Video Codec
Format profile                 : High@L4.1
Format settings, CABAC         : Yes
Format settings, ReFrames      : 4 frames
Codec ID                       : 27
Duration                       : 1h 40mn
Bit rate                       : 5 350 Kbps
Width                          : 1 920 pixels
Height                         : 1 080 pixels
Display aspect ratio           : 16:9
Frame rate                     : 25.000 fps
Color space                    : YUV
Chroma subsampling             : 4:2:0
Bit depth                      : 8 bits
Scan type                      : Interlaced
Bits/(Pixel*Frame)             : 0.103
Stream size                    : 3.75 GiB (92%)
Color primaries                : BT.709
Transfer characteristics       : BT.709
Matrix coefficients            : BT.709

Audio
ID                             : 88 (0x5cool1.gif
Menu ID                        : 3503 (0xDAF)
Format                         : AC-3
Format/Info                    : Audio Coding 3
Mode extension                 : CM (complete main)
Format settings, Endianness    : Big
Codec ID                       : 6
Duration                       : 1h 40mn
Bit rate mode                  : Constant
Bit rate                       : 160 Kbps
Channel(s)                     : 2 channels
Channel positions              : Front: L R
Sampling rate                  : 48.0 KHz
Bit depth                      : 16 bits
Compression mode               : Lossy
Delay relative to video        : 63ms
Stream size                    : 115 MiB (3%)
Language                       : Polish

Category International Soccer
Rating N/A
Size 4.06 GB
Show/Hide Files
1 file