Torrent’s details
Name Boxing 2014-11-29 Billy Joe Saunders vs Chris Eubank Jr 1080i Polish PolSatSportHD
Image
Description Complete name: I:2014-11-29.Billy.Joe.Saunders.vs.Chris.Eubank.Jr.1080i.Polish.PolSatSportHD.mkv
Format                                   : Matroska
Format version                           : Version 2
File size                                : 2.94 GiB
Duration                                 : 53 min 34 s
Overall bit rate                         : 7 860 kb/s
Writing application                      : Lavf54.63.104
Writing library                          : Lavf54.63.104

Video
ID                                       : 1
Format                                   : AVC
Format/Info                              : Advanced Video Codec
Format profile                           : High@L4
Format settings                          : CABAC / 3 Ref Frames
Format settings, CABAC                   : Yes
Format settings, RefFrames               : 3 frames
Codec ID                                 : V_MPEG4/ISO/AVC
Duration                                 : 53 min 34 s
Bit rate                                 : 7 512 kb/s
Width                                    : 1 920 pixels
Height                                   : 1 080 pixels
Display aspect ratio                     : 16:9
Frame rate mode                          : Constant
Frame rate                               : 25.000 FPS
Standard                                 : Component
Color space                              : YUV
Chroma subsampling                       : 4:2:0
Bit depth                                : 8 bits
Scan type                                : Interlaced
Scan type, store method                  : Separated fields
Scan order                               : Top Field First
Bits/(Pixel*Frame)                       : 0.145
Stream size                              : 2.81 GiB (96%)
Default                                  : No
Forced                                   : No
Color range                              : Limited
Color primaries                          : BT.709
Transfer characteristics                 : BT.709
Matrix coefficients                      : BT.709

Audio
ID                                       : 2
Format                                   : MPEG Audio
Format version                           : Version 1
Format profile                           : Layer 2
Codec ID                                 : A_MPEG/L2
Codec ID/Hint                            : MP2
Duration                                 : 53 min 34 s
Bit rate mode                            : Constant
Bit rate                                 : 192 kb/s
Channel(s)                               : 2 channels
Sampling rate                            : 48.0 kHz
Compression mode                         : Lossy
Stream size                              : 73.6 MiB (2%)
Language                                 : Polish
Default                                  : Yes
Forced                                   : No
Category Boxing
Rating N/A
Size 2.94 GB
Show/Hide Files
1 file