Torrent’s details
Name WEC 2022 Round04 6 Hours of Monza 1080pEN60fps
Description
Format: MPEG-4
Format profile: Base Media
Codec ID: isom
File size: 16.7 GiB
Duration: 7h 12mn
Overall bit rate: 5 529 Kbps
Movie name: FULL RACE | 2022 6 Hours of Monza | FIA WEC
Performer: FIA World Endurance Championship
Writing application: Lavf58.39.101

Video
ID: 1
Format: AVC
Format/Info: Advanced Video Codec
Format profile: High@L4.2
Format settings, CABAC: Yes
Format settings, ReFrames: 3 frames
Codec ID: avc1
Codec ID/Info: Advanced Video Coding
Duration: 7h 12mn
Bit rate: 5 386 Kbps
Width: 1 920 pixels
Height: 1 080 pixels
Display aspect ratio: 16:9
Frame rate mode: Constant
Frame rate: 60.000 fps
Color space: YUV
Chroma subsampling: 4:2:0
Bit depth: 8 bits
Scan type: Progressive
Bits/(Pixel*Frame): 0.043
Stream size: 16.3 GiB (97%)
Writing library: x264 core 155 r2901 7d0ff22
Color primaries: BT.709
Transfer characteristics: BT.709
Matrix coefficients: BT.709

Audio
ID: 2
Format: AAC
Format/Info: Advanced Audio Codec
Format profile
Codec ID: 40
Duration: 7h 12mn
Bit rate mode: Constant
Bit rate: 128 Kbps
Channel(s): 2 channels
Channel positions: Front: L R
Sampling rate: 44.1 KHz
Compression mode
Stream size: 396 MiB (2%)
Category MotorSport
Rating N/A
Size 16.71 GB
Show/Hide Files
1 file