Torrent’s details
Name NBA Playoffs 1999 ECF Pacers@Knicks Game 6 2DVD Eng
Image
Description Video
ID                          : 224 (0xE0)
Format                      : MPEG Video
Format version              : Version 2
Format profile              : Main@Main
Format settings             : BVOP
Format settings, BVOP       : Yes
Format settings, Matrix     : Default
Format settings, GOP        : M=3, N=15
Format settings, picture st : Frame
Duration                    : 15 s 199 ms
Bit rate mode               : Variable
Bit rate                    : 548 Mb/s
Maximum bit rate            : 9 586 kb/s
Width                       : 704 pixels
Height                      : 480 pixels
Display aspect ratio        : 4:3
Frame rate                  : 29.970 (30000/1001) FPS
Standard                    : NTSC
Color space                 : YUV
Chroma subsampling          : 4:2:0
Bit depth                   : 8 bits
Scan type                   : Interlaced
Scan order                  : Top Field First
Compression mode            : Lossy
Bits/(Pixel*Frame)          : 54.092
Time code of first frame    : 00:32:45:00
Time code source            : Group of pictures header
GOP, Open/Closed            : Open
Stream size                 : 994 MiB (97%)
Color primaries             : BT.601 NTSC
Transfer characteristics    : BT.601
Matrix coefficients         : BT.601

Audio
ID                          : 189 (0xBD)-128 (0x80)
Format                      : AC-3
Format/Info                 : Audio Coding 3
Muxing mode                 : DVD-Video
Duration                    : 15 s 353 ms
Bit rate mode               : Constant
Bit rate                    : 256 kb/s
Channel(s)                  : 2 channels
Channel positions           : Front: L R
Sampling rate               : 48.0 kHz
Frame rate                  : 31.250 FPS (1536 SPF)
Bit depth                   : 16 bits
Compression mode            : Lossy
Delay relative to video     : -524 ms
Stream size                 : 480 KiB (0%)
Service kind                : Complete Main
Category NBA/WNBA
Rating N/A
Size 7.98 GB
Show/Hide Files
19 files