Torrent’s details
Name WTA.Yarra.Valley.2021.02.05.Garbine.Muguruza.vs.Sofia.Kenin.POLISH.720p.HDTV.x264
Image
Description WTA.Yarra.Valley.2021.02.05.Garbine.Muguruza.vs.Sofia.Kenin.POLISH.720p.HDTV.x264

Release Details
Network: Canal+ PL
Language: Polish
Notes: Full Match Uncut

Media Info:
General
Complete name                            : WTA.Yarra.Valley.2021.02.05.Garbine.Muguruza.vs.Sofia.Kenin.CANALPL.720p-PL.mp4
Format                                   : MPEG-4
Format profile                           : Base Media
Codec ID                                 : isom (isom/iso2/avc1/mp41)
File size                                : 1.07 GiB
Duration                                 : 1h 27mn
Overall bit rate                         : 1 754 Kbps
Encoded date                             : UTC 1904-01-01 00:00:00
Tagged date                              : UTC 1904-01-01 00:00:00
Writing application                      : Lavf57.83.100

Video
ID                                       : 1
Format                                   : AVC
Format/Info                              : Advanced Video Codec
Format profile                           : High@L3.2
Format settings, CABAC                   : Yes
Format settings, ReFrames                : 4 frames
Codec ID                                 : avc1
Codec ID/Info                            : Advanced Video Coding
Duration                                 : 1h 27mn
Bit rate                                 : 1 613 Kbps
Width                                    : 1 280 pixels
Height                                   : 720 pixels
Display aspect ratio                     : 16:9
Frame rate mode                          : Constant
Frame rate                               : 50.000 fps
Color space                              : YUV
Chroma subsampling                       : 4:2:0
Bit depth                                : 8 bits
Scan type                                : Progressive
Bits/(Pixel*Frame)                       : 0.035
Stream size                              : 1 007 MiB (92%)

Audio
ID                                       : 2
Format                                   : AAC
Format/Info                              : Advanced Audio Codec
Format profile                           : LC
Codec ID                                 : 40
Duration                                 : 1h 27mn
Bit rate mode                            : Constant
Bit rate                                 : 132 Kbps
Channel(s)                               : 2 channels
Channel positions                        : Front: L R
Sampling rate                            : 48.0 KHz
Frame rate                               : 46.875 fps (1024 spf)
Compression mode                         : Lossy
Stream size                              : 81.7 MiB (7%)
Language                                 : Polish
Default                                  : Yes
Alternate group                          : 1
Encoded date                             : UTC 1904-01-01 00:00:00
Tagged date                              : UTC 1904-01-01 00:00:00


Category Tennis
Rating N/A
Size 1.07 GB
Show/Hide Files
1 file